Seite 1 von 2 12 LetzteLetzte
Ergebnis 1 bis 10 von 11

Thema: Kodi auf Raspbian spielt das Video nicht ab

  1. #1
    Walk the Line Avatar von _Laui_
    Registriert seit
    24. June 2009
    Beiträge
    167

    Standard Kodi auf Raspbian spielt das Video nicht ab

    Habe hier Kodi 17.3 aktuelle Version auf dem Raspberry Pi 3 OS Raspbian. Allerdings spielt er folgendes Video nicht ab
    Code:
    General
    Unique ID                                : 215613386142676548822908257226304806043 (0xA235A0AF8643AD348B69FD6AF82C5C9B)
    Complete name                            : video.mkv
    Format                                   : Matroska
    Format version                           : Version 2
    File size                                : 862 MiB
    Duration                                 : 50mn 38s
    Overall bit rate                         : 2 378 Kbps
    Encoded date                             : UTC 2012-07-19 05:55:28
    Writing application                      : mkvmerge v5.7.0 ('The Whirlwind') built on Jul  8 2012 20:08:51
    Writing library                          : libebml v1.2.3 + libmatroska v1.3.0
    
    Video
    ID                                       : 1
    Format                                   : AVC
    Format/Info                              : Advanced Video Codec
    Format profile                           : Main@L3.1
    Format settings, CABAC                   : Yes
    Format settings, ReFrames                : 4 frames
    Muxing mode                              : Header stripping
    Codec ID                                 : V_MPEG4/ISO/AVC
    Duration                                 : 50mn 38s
    Bit rate                                 : 2 000 Kbps
    Width                                    : 1 088 pixels
    Height                                   : 592 pixels
    Display aspect ratio                     : 16:9
    Frame rate mode                          : Constant
    Frame rate                               : 25.000 fps
    Color space                              : YUV
    Chroma subsampling                       : 4:2:0
    Bit depth                                : 8 bits
    Scan type                                : Progressive
    Bits/(Pixel*Frame)                       : 0.124
    Stream size                              : 705 MiB (82%)
    Writing library                          : x264 core 120
    Encoding settings                        : cabac=1 / ref=1 / deblock=1:0:0 / analyse=0x1:0x111 / me=hex / subme=2 / psy=1 / psy_rd=1.00:0.00 / mixed_ref=0 / me_range=16 / chroma_me=1 / trellis=0 / 8x8dct=0 / cqm=0 / deadzone=21,11 / fast_pskip=1 / chroma_qp_offset=0 / threads=12 / sliced_threads=0 / nr=0 / decimate=1 / interlaced=0 / bluray_compat=0 / constrained_intra=0 / bframes=3 / b_pyramid=2 / b_adapt=1 / b_bias=0 / direct=1 / weightb=1 / open_gop=0 / weightp=1 / keyint=250 / keyint_min=25 / scenecut=40 / intra_refresh=0 / rc_lookahead=10 / rc=abr / mbtree=1 / bitrate=2000 / ratetol=1.0 / qcomp=0.60 / qpmin=3 / qpmax=69 / qpstep=4 / ip_ratio=1.40 / aq=1:1.00
    Language                                 : English
    Default                                  : Yes
    Forced                                   : No
    Color primaries                          : BT.709
    Transfer characteristics                 : BT.709
    Matrix coefficients                      : BT.709
    
    Audio
    ID                                       : 2
    Format                                   : AC-3
    Format/Info                              : Audio Coding 3
    Mode extension                           : CM (complete main)
    Format settings, Endianness              : Big
    Muxing mode                              : Header stripping
    Codec ID                                 : A_AC3
    Duration                                 : 50mn 38s
    Bit rate mode                            : Constant
    Bit rate                                 : 384 Kbps
    Channel(s)                               : 2 channels
    Channel positions                        : Front: L R
    Sampling rate                            : 48.0 KHz
    Bit depth                                : 16 bits
    Compression mode                         : Lossy
    Stream size                              : 139 MiB (16%)
    Language                                 : German
    Default                                  : Yes
    Forced                                   : No
    , ich klicke es an Doppelklick ganz normal aber es passiert nichts. Betrifft einige, wird von einer Externen FP 1TB gelesen.

    avplay (Libav, ffmpeg-Fork) hat damit keine Probleme

    Woran liegts?

    Edit: Ok avplay auch nicht wirklich, Audio wird nicht abgespielt und avplay stürzt ab
    Dateien fehlerhaft?
    Geändert von _Laui_ (1. August 2017 um 00:18 Uhr)

  2. #2
    . Avatar von Selur
    Registriert seit
    19. April 2003
    Ort
    underground
    Beiträge
    24.710

    Standard AW: Kodi auf Raspbian spielt das Video nicht ab

    Eventuell mal mit mkvtoolnix remuxen, ansonsten würde ich spontan auch eine defekte Datei bzw. Fehler bei der Übertragung vermuten.

  3. #3
    Walk the Line Avatar von _Laui_
    Registriert seit
    24. June 2009
    Beiträge
    167

    Standard AW: Kodi auf Raspbian spielt das Video nicht ab

    Hat leider nichts gebracht. Letzte verfügbare mkvmerge Version auf Raspbian ist aber auch 7.3
    Code:
    General
    Unique ID                                : 34732105174458174223603150652487531838 (0x1A2128FED9B87EA40CC4E5A2BE6C7D3E)
    Complete name                            video-remuxed.mkv
    Format                                   : Matroska
    Format version                           : Version 4 / Version 2
    File size                                : 862 MiB
    Duration                                 : 50mn 38s
    Overall bit rate                         : 2 379 Kbps
    Encoded date                             : UTC 2017-08-01 13:00:00
    Writing application                      : mkvmerge v7.3.0 ('Nouages') 32bit built on Nov  3 2014 16:34:23
    Writing library                          : libebml v1.3.0 + libmatroska v1.4.1
    DURATION                                 : 00:50:38.464000000
    NUMBER_OF_FRAMES                         : 94952
    NUMBER_OF_BYTES                          : 145846272
    _STATISTICS_WRITING_APP                  : mkvmerge v7.3.0 ('Nouages') 32bit built on Nov  3 2014 16:34:23
    _STATISTICS_WRITING_DATE_UTC             : 2017-08-01 13:00:00
    _STATISTICS_TAGS                         : BPS DURATION NUMBER_OF_FRAMES NUMBER_OF_BYTES
    
    Video
    ID                                       : 1
    Format                                   : AVC
    Format/Info                              : Advanced Video Codec
    Format profile                           : Main@L3.1
    Format settings, CABAC                   : Yes
    Format settings, ReFrames                : 4 frames
    Codec ID                                 : V_MPEG4/ISO/AVC
    Duration                                 : 50mn 38s
    Bit rate                                 : 2 000 Kbps
    Width                                    : 1 088 pixels
    Height                                   : 592 pixels
    Display aspect ratio                     : 16:9
    Frame rate mode                          : Constant
    Frame rate                               : 25.000 fps
    Color space                              : YUV
    Chroma subsampling                       : 4:2:0
    Bit depth                                : 8 bits
    Scan type                                : Progressive
    Bits/(Pixel*Frame)                       : 0.124
    Stream size                              : 706 MiB (82%)
    Writing library                          : x264 core 120
    Encoding settings                        : cabac=1 / ref=1 / deblock=1:0:0 / analyse=0x1:0x111 / me=hex / subme=2 / psy=1 / psy_rd=1.00:0.00 / mixed_ref=0 / me_range=16 / chroma_me=1 / trellis=0 / 8x8dct=0 / cqm=0 / deadzone=21,11 / fast_pskip=1 / chroma_qp_offset=0 / threads=12 / sliced_threads=0 / nr=0 / decimate=1 / interlaced=0 / bluray_compat=0 / constrained_intra=0 / bframes=3 / b_pyramid=2 / b_adapt=1 / b_bias=0 / direct=1 / weightb=1 / open_gop=0 / weightp=1 / keyint=250 / keyint_min=25 / scenecut=40 / intra_refresh=0 / rc_lookahead=10 / rc=abr / mbtree=1 / bitrate=2000 / ratetol=1.0 / qcomp=0.60 / qpmin=3 / qpmax=69 / qpstep=4 / ip_ratio=1.40 / aq=1:1.00
    Language                                 : English
    Default                                  : Yes
    Forced                                   : No
    Color primaries                          : BT.709
    Transfer characteristics                 : BT.709
    Matrix coefficients                      : BT.709
    
    Audio
    ID                                       : 2
    Format                                   : AC-3
    Format/Info                              : Audio Coding 3
    Mode extension                           : CM (complete main)
    Format settings, Endianness              : Big
    Codec ID                                 : A_AC3
    Duration                                 : 50mn 38s
    Bit rate mode                            : Constant
    Bit rate                                 : 384 Kbps
    Channel(s)                               : 2 channels
    Channel positions                        : Front: L R
    Sampling rate                            : 48.0 KHz
    Bit depth                                : 16 bits
    Compression mode                         : Lossy
    Stream size                              : 139 MiB (16%)
    Language                                 : German
    Default                                  : Yes
    Forced                                   : No
    die Datei liegt jetzt auf der SD/Home-Ordner von Raspbian
    Geändert von _Laui_ (1. August 2017 um 15:41 Uhr)

  4. #4
    Erklär-Bär Avatar von LigH
    Registriert seit
    19. April 2003
    Ort
    OPAL-Invalidengebiet Altmark
    Alter
    42
    Beiträge
    42.429

    Standard AW: Kodi auf Raspbian spielt das Video nicht ab

    Klappt es ohne Audiostream? (384 kbps ist evtl. etwas viel für 2 Kanäle, je nach Decoder)

    Auf gute Zusammenarbeit:

    REGELN befolgen | SUCHE benutzen | FAQ lesen | STICKIES beachten




  5. #5
    Tripel-As
    Registriert seit
    5. March 2009
    Beiträge
    224

    Standard AW: Kodi auf Raspbian spielt das Video nicht ab

    Und was gibt denn Kodi im Log aus?

  6. #6
    Walk the Line Avatar von _Laui_
    Registriert seit
    24. June 2009
    Beiträge
    167

    Standard AW: Kodi auf Raspbian spielt das Video nicht ab

    Zitat Zitat von monarc99 Beitrag anzeigen
    Und was gibt denn Kodi im Log aus?
    Wo finde ich das?, unter "Event Log" finde ich nichts.

    Auch den reinen Videostream in einer MKV spielt Kodi nicht ab, avplay schon.

    Ich habe mal jetzt die Audiospur.ac3 in eine mp3 gewandelt
    Code:
    avconv -i video.mkv -vn -acodec copy audiospur.ac3
    
    avconv -i audiospur.ac3 output.mp3
    Das ganze dann wieder mit mkvmergeGUI muxed
    Kein Erfolg beim Abspielen
    Jetzt mal in eine MP4 zu muxen/kopiert
    Code:
    avconv -i new-muxed-video.mkv -vcodec copy -acodec copy output.mp4
    Auch kein vernünftiges Abspielen, Kodi gar nicht und avplay nur die Videospur und den Audiostream ein kleines bisschen bis gar nicht.
    Geändert von _Laui_ (3. August 2017 um 16:21 Uhr)

  7. #7
    Walk the Line Avatar von _Laui_
    Registriert seit
    24. June 2009
    Beiträge
    167

    Standard AW: Kodi auf Raspbian spielt das Video nicht ab

    Edit:

    Ok Kodi als Standalone OS auf einer SD (LibreELEC) funktionieren die Videos einwandfrei, nur unter Raspbian keine Wiedergabe.

  8. #8
    König Avatar von Massaguana
    Registriert seit
    10. April 2004
    Beiträge
    940

    Standard AW: Kodi auf Raspbian spielt das Video nicht ab

    Wenn ich mich nicht sehr täusche bringt der Raspberry für AVC kein Hardwaredecoder mit, daher muss er das in Software erledigen... dies klappt nicht immer und funktioniert nur bei geringen Datenraten. Das selbe Problem gibt es bei HEVC
    Geändert von Massaguana (4. August 2017 um 10:20 Uhr)
     MacPro 5,1 | 12 x 3,06 Ghz | 64 GB Ram | 480GB PCIe SSD OWC Accelsior E2 | 12 TB HD

  9. #9
    Walk the Line Avatar von _Laui_
    Registriert seit
    24. June 2009
    Beiträge
    167

    Standard AW: Kodi auf Raspbian spielt das Video nicht ab

    Kodi als OS nutzt wohl Hardware Decoding laut dieser FAQ https://kodi.wiki/view/Raspberry_Pi_FAQ

  10. #10
    Simplifizissimus Avatar von bergh
    Registriert seit
    10. May 2003
    Ort
    Am Kamener Kreuz
    Alter
    57
    Beiträge
    6.170

    Standard AW: Kodi auf Raspbian spielt das Video nicht ab

    schon !..., aber muß man das nicht irgendwo aktivieren?
    Oder halt den Codec nachinstallieren.
    Gruss BergH

Seite 1 von 2 12 LetzteLetzte

Aktive Benutzer

Aktive Benutzer

Aktive Benutzer in diesem Thema: 1 (Registrierte Benutzer: 0, Gäste: 1)

Ähnliche Themen

  1. DVD-UDF spielt nicht auf meinem DVD-Player ab.
    Von DeafYakuza im Forum Abspielprobleme
    Antworten: 3
    Letzter Beitrag: 25. December 2004, 20:02
  2. Fotoshow CDR spielt nicht ab
    Von wegei im Forum Abspielprobleme
    Antworten: 0
    Letzter Beitrag: 18. July 2004, 22:59
  3. Reauthorist spielt PGC nicht mehr ab
    Von possi im Forum BIG 3, DoItFast4U, ReAuthorist und DoCCE4U
    Antworten: 6
    Letzter Beitrag: 26. March 2004, 23:04
  4. HD-DVD-Player Bravo D3 spielt Windows Media Video 9
    Von Chefkoch78 im Forum Talk im Turm
    Antworten: 1
    Letzter Beitrag: 7. January 2004, 18:40
  5. sa spielt svcd nicht! :-(
    Von jennyuwi im Forum Abspielprobleme
    Antworten: 5
    Letzter Beitrag: 8. July 2003, 17:00

Berechtigungen

  • Neue Themen erstellen: Nein
  • Themen beantworten: Nein
  • Anhänge hochladen: Nein
  • Beiträge bearbeiten: Nein
  •