Ergebnis 1 bis 7 von 7

Thema: MeGUI Zieldatei zu klein

  1. #1
    Eroberer
    Registriert seit
    18. February 2014
    Beiträge
    60

    Standard MeGUI Zieldatei zu klein

    Scheinbar ist MeGUI gegen mich .. Komischer weise wird meine Ziel Datei zu klein. Hatte ja früher mal das Problem mit dem Oversize (sieh auch hier: https://forum.gleitz.info/showthread....6%DFen-Problem ) welches ich beheben konnte in dem ich den Quantisitazion Type von h.263 auf MPEG gestellt habe.

    Hab jetzt schon mehrfach hier und da mal was umgestellt jedoch wird meine Video Bitrate einfach immer wieder zu klein, gibt es doch nicht. Habe nach meinen Xvid Presets Encodet welche min. auf 1550 kbps Bitrate stehen als Ziel..Bin mit meinem Latein am Ende, echt .. Liegt es an der Quell Datei womöglich? dazwischen hatte ich richtige Ergebnisse bei anderen Filmen..

    Hier mal eine Log file :

    Code:
    -[Information] FileIndexer
    -[Information] MkvInfo
    -[NoImage] File 'C:\DownloadJD\test\tes.mkv': container: Matroska [container_type:17 date_local:2017-02-14T15\c48\c22-08\c00 date_utc:2017-02-14T23\c48\c22Z duration:6898560000000 is_providing_timecodes:1 muxing_application:libebml\sv1.2.3\s+\slibmatroska\sv1.3.0 segment_uid:914cb8b3483b8227a52ad1f2103b0e27 writing_application:mkvmerge\sv5.6.0\s('Kenya\sKane')\sbuilt\son\sJun\s29\s2012\s15\c01\c44]
    -[NoImage] Track ID 0: video (MPEG-4p10/AVC/h.264) [codec_id:V_MPEG4/ISO/AVC codec_private_data:01640029ffe1001967640029acd98050045f97011000003e90000bb808f18319a001000668e978332c8b codec_private_length:42 content_encoding_algorithms:3 default_duration:41708332 default_track:1 display_dimensions:1280x536 enabled_track:1 forced_track:0 language:und minimum_timestamp:0 number:1 packetizer:mpeg4_p10_video pixel_dimensions:1280x536 uid:1]
    -[NoImage] Track ID 1: audio (AC-3/E-AC-3) [audio_channels:2 audio_sampling_frequency:48000 codec_id:A_AC3 codec_private_length:0 content_encoding_algorithms:3 default_duration:32000000 default_track:1 enabled_track:1 forced_track:1 language:ger minimum_timestamp:24000000 number:2 uid:2923908229]
    -[NoImage] Track ID 2: audio (DTS) [audio_channels:6 audio_sampling_frequency:48000 codec_id:A_DTS codec_private_length:0 content_encoding_algorithms:3 default_duration:10666666 default_track:0 enabled_track:1 forced_track:0 language:eng minimum_timestamp:0 number:3 uid:565231233]
    -[NoImage] Track ID 3: subtitles (SubRip/SRT) [codec_id:S_TEXT/UTF8 codec_private_length:0 default_track:0 enabled_track:1 forced_track:0 language:eng number:4 text_subtitles:1 uid:2992360330]
    -[NoImage] Track ID 4: subtitles (SubRip/SRT) [codec_id:S_TEXT/UTF8 codec_private_length:0 default_track:0 enabled_track:1 forced_track:0 language:eng number:5 text_subtitles:1 track_name:SDH uid:1452012446]
    -[NoImage] Chapters: 16 entries
    --[Information] [2/14/2017 11:21:05 PM] MkvInfo
    -[NoImage] CHAPTER01=00:00:00.000
    -[NoImage] CHAPTER01NAME=00:00:00.000
    -[NoImage] CHAPTER02=00:04:34.566
    -[NoImage] CHAPTER02NAME=00:04:34.566
    -[NoImage] CHAPTER03=00:10:16.825
    -[NoImage] CHAPTER03NAME=00:10:16.825
    -[NoImage] CHAPTER04=00:18:32.153
    -[NoImage] CHAPTER04NAME=00:18:32.153
    -[NoImage] CHAPTER05=00:24:37.017
    -[NoImage] CHAPTER05NAME=00:24:37.017
    -[NoImage] CHAPTER06=00:31:40.482
    -[NoImage] CHAPTER06NAME=00:31:40.482
    -[NoImage] CHAPTER07=00:38:33.811
    -[NoImage] CHAPTER07NAME=00:38:33.811
    -[NoImage] CHAPTER08=00:43:16.135
    -[NoImage] CHAPTER08NAME=00:43:16.135
    -[NoImage] CHAPTER09=00:48:24.527
    -[NoImage] CHAPTER09NAME=00:48:24.527
    -[NoImage] CHAPTER10=00:55:34.498
    -[NoImage] CHAPTER10NAME=00:55:34.498
    -[NoImage] CHAPTER11=01:05:04.359
    -[NoImage] CHAPTER11NAME=01:05:04.359
    -[NoImage] CHAPTER12=01:12:38.437
    -[NoImage] CHAPTER12NAME=01:12:38.437
    -[NoImage] CHAPTER13=01:22:14.346
    -[NoImage] CHAPTER13NAME=01:22:14.346
    -[NoImage] CHAPTER14=01:28:28.637
    -[NoImage] CHAPTER14NAME=01:28:28.637
    -[NoImage] CHAPTER15=01:35:00.904
    -[NoImage] CHAPTER15NAME=01:35:00.904
    -[NoImage] CHAPTER16=01:45:06.509
    -[NoImage] CHAPTER16NAME=01:45:06.509
    --[Information] [2/14/2017 11:21:05 PM] MkvExtract
    --[Information] [2/14/2017 11:21:05 PM] MediaInfo
    ---[Information] [2/14/2017 11:21:05 PM] File: C:\DownloadJD\test\tes.mkv
    -[Information] Format: Matroska
    -[Information] FormatString: Matroska
    -[Information] FileSize: 6052471719
    -[Information] PlayTime: 01:54:58.560
    ---[Information] General
    -[Information] ID: 1
    -[Information] StreamOrder: 0
    -[Information] Width: 1280
    -[Information] Height: 536
    -[Information] FrameCount: 165400
    -[Information] FrameRate: 23.976
    -[Information] FrameRateOriginal: 
    -[Information] FrameRateMode: CFR
    -[Information] ScanType: Progressive
    -[Information] Codec: V_MPEG4/ISO/AVC
    -[Information] CodecString: AVC
    -[Information] Bits Depth: 8
    -[Information] Format: AVC
    -[Information] AspectRatio: 2.388
    -[Information] AspectRatioString: 2.40:1
    -[Information] Delay: 0
    -[Information] Title: 
    -[Information] Language: 
    -[Information] LanguageString: 
    -[Information] Default: Yes
    -[Information] DefaultString: Yes
    -[Information] Forced: No
    -[Information] ForcedString: No
    ---[Information] Video
    -[Information] ID: 2
    -[Information] StreamOrder: 1
    -[Information] Format: AC-3
    -[Information] FormatProfile: 
    -[Information] FormatSettingsSBR: 
    -[Information] FormatSettingsPS: 
    -[Information] SamplingRate: 48000
    -[Information] SamplingRateString: 48.0 kHz
    -[Information] Channels: 2
    -[Information] ChannelsString: 2 channels
    -[Information] ChannelPositionsString2: 2/0/0
    -[Information] BitRateMode: CBR
    -[Information] Delay: 24
    -[Information] Title: 
    -[Information] Language: de
    -[Information] LanguageString: German
    -[Information] Default: Yes
    -[Information] DefaultString: Yes
    -[Information] Forced: Yes
    -[Information] ForcedString: Yes
    ---[Information] Audio
    -[Information] ID: 3
    -[Information] StreamOrder: 2
    -[Information] Format: DTS
    -[Information] FormatProfile: 
    -[Information] FormatSettingsSBR: 
    -[Information] FormatSettingsPS: 
    -[Information] SamplingRate: 48000
    -[Information] SamplingRateString: 48.0 kHz
    -[Information] Channels: 6
    -[Information] ChannelsString: 6 channels
    -[Information] ChannelPositionsString2: 3/2/0.1
    -[Information] BitRateMode: CBR
    -[Information] Delay: 0
    -[Information] Title: 
    -[Information] Language: en
    -[Information] LanguageString: English
    -[Information] Default: No
    -[Information] DefaultString: No
    -[Information] Forced: No
    -[Information] ForcedString: No
    ---[Information] Audio
    -[Information] ID: 4
    -[Information] StreamOrder: 3
    -[Information] Codec: S_TEXT/UTF8
    -[Information] CodecString: UTF-8
    -[Information] Delay: 
    -[Information] Title: 
    -[Information] Language: en
    -[Information] LanguageString: English
    -[Information] Default: No
    -[Information] DefaultString: No
    -[Information] Forced: No
    -[Information] ForcedString: No
    ---[Information] Text
    -[Information] ID: 5
    -[Information] StreamOrder: 4
    -[Information] Codec: S_TEXT/UTF8
    -[Information] CodecString: UTF-8
    -[Information] Delay: 
    -[Information] Title: SDH
    -[Information] Language: en
    -[Information] LanguageString: English
    -[Information] Default: No
    -[Information] DefaultString: No
    -[Information] Forced: No
    -[Information] ForcedString: No
    ---[Information] Text
    -[Information] Log for job1 (idx, tes.mkv -> tes.mkv.lwi)
    --[Information] [2/14/2017 11:21:11 PM] Started handling job
    --[Information] [2/14/2017 11:21:11 PM] Preprocessing
    --[Information] [2/14/2017 11:21:11 PM] Job command line: "C:\Windows\system32\ping.exe" 127.0.0.1 -t
    --[Information] [2/14/2017 11:21:11 PM] Process started
    --[Information] [2/14/2017 11:21:11 PM] Standard output stream
    --[Information] [2/14/2017 11:21:11 PM] Standard error stream
    ---[Information] [2/14/2017 11:21:11 PM] Creating LSMASH index...
    -[NoImage] LoadPlugin("C:\Users\Administrator\Desktop\MeGUI x86\tools\lsmash\LSMASHSource.dll")
    -[NoImage] LWLibavVideoSource("C:\DownloadJD\test\tes.mkv")
    ---[Information] [2/14/2017 11:21:11 PM] AviSynth script
    --[Information] [2/14/2017 11:21:24 PM] MediaInfo
    ---[Information] [2/14/2017 11:21:24 PM] File: C:\DownloadJD\test\tes.mkv.lwi
    ---[Information] Indexed File: C:\DownloadJD\test\tes.mkv
    -[Information] Format: Matroska
    -[Information] FormatString: Matroska
    -[Information] FileSize: 6052471719
    -[Information] PlayTime: 01:54:58.560
    ---[Information] General
    -[Information] ID: 1
    -[Information] StreamOrder: 0
    -[Information] Width: 1280
    -[Information] Height: 536
    -[Information] FrameCount: 165400
    -[Information] FrameRate: 23.976
    -[Information] FrameRateOriginal: 
    -[Information] FrameRateMode: CFR
    -[Information] ScanType: Progressive
    -[Information] Codec: V_MPEG4/ISO/AVC
    -[Information] CodecString: AVC
    -[Information] Bits Depth: 8
    -[Information] Format: AVC
    -[Information] AspectRatio: 2.388
    -[Information] AspectRatioString: 2.40:1
    -[Information] Delay: 0
    -[Information] Title: 
    -[Information] Language: 
    -[Information] LanguageString: 
    -[Information] Default: Yes
    -[Information] DefaultString: Yes
    -[Information] Forced: No
    -[Information] ForcedString: No
    ---[Information] Video
    -[Information] ID: 2
    -[Information] StreamOrder: 1
    -[Information] Format: AC-3
    -[Information] FormatProfile: 
    -[Information] FormatSettingsSBR: 
    -[Information] FormatSettingsPS: 
    -[Information] SamplingRate: 48000
    -[Information] SamplingRateString: 48.0 kHz
    -[Information] Channels: 2
    -[Information] ChannelsString: 2 channels
    -[Information] ChannelPositionsString2: 2/0/0
    -[Information] BitRateMode: CBR
    -[Information] Delay: 24
    -[Information] Title: 
    -[Information] Language: de
    -[Information] LanguageString: German
    -[Information] Default: Yes
    -[Information] DefaultString: Yes
    -[Information] Forced: Yes
    -[Information] ForcedString: Yes
    ---[Information] Audio
    -[Information] ID: 3
    -[Information] StreamOrder: 2
    -[Information] Format: DTS
    -[Information] FormatProfile: 
    -[Information] FormatSettingsSBR: 
    -[Information] FormatSettingsPS: 
    -[Information] SamplingRate: 48000
    -[Information] SamplingRateString: 48.0 kHz
    -[Information] Channels: 6
    -[Information] ChannelsString: 6 channels
    -[Information] ChannelPositionsString2: 3/2/0.1
    -[Information] BitRateMode: CBR
    -[Information] Delay: 0
    -[Information] Title: 
    -[Information] Language: en
    -[Information] LanguageString: English
    -[Information] Default: No
    -[Information] DefaultString: No
    -[Information] Forced: No
    -[Information] ForcedString: No
    ---[Information] Audio
    -[Information] ID: 4
    -[Information] StreamOrder: 3
    -[Information] Codec: S_TEXT/UTF8
    -[Information] CodecString: UTF-8
    -[Information] Delay: 
    -[Information] Title: 
    -[Information] Language: en
    -[Information] LanguageString: English
    -[Information] Default: No
    -[Information] DefaultString: No
    -[Information] Forced: No
    -[Information] ForcedString: No
    ---[Information] Text
    -[Information] ID: 5
    -[Information] StreamOrder: 4
    -[Information] Codec: S_TEXT/UTF8
    -[Information] CodecString: UTF-8
    -[Information] Delay: 
    -[Information] Title: SDH
    -[Information] Language: en
    -[Information] LanguageString: English
    -[Information] Default: No
    -[Information] DefaultString: No
    -[Information] Forced: No
    -[Information] ForcedString: No
    ---[Information] Text
    --[Information] [2/14/2017 11:21:24 PM] Postprocessing
    ---[Information] [2/14/2017 11:21:36 PM] Deleting intermediate files
    --[Information] [2/14/2017 11:21:36 PM] Job completed
    -[Information] AutoEncode job generation log
    --[Information] [2/14/2017 11:22:42 PM] Split Size : null
    -[Information] [2/14/2017 11:22:42 PM] Video output file: C:\DownloadJD\test\tes.mkv.m4v
    -[Information] [2/14/2017 11:22:42 PM] Muxed output file: C:\DownloadJD\test\tes.mkv-muxed.avi
    --[Information] Eliminating duplicate filenames
    -[Information] Log for job2 (video, tes.mkv.avs -> )
    --[Information] [2/14/2017 11:22:42 PM] Started handling job
    --[Information] [2/14/2017 11:22:42 PM] Preprocessing
    -[NoImage] LoadPlugin("C:\Users\Administrator\Desktop\MeGUI x86\tools\lsmash\LSMASHSource.dll")
    -[NoImage] LWLibavVideoSource("C:\DownloadJD\test\tes.mkv")
    -[NoImage] #deinterlace
    -[NoImage] #crop
    -[NoImage] LanczosResize(720,304) # Lanczos (Sharp)
    -[NoImage] #denoise
    --[Information] [2/14/2017 11:22:42 PM] Avisynth input script
    --[Information] [2/14/2017 11:22:53 PM] resolution: 720x304
    --[Information] [2/14/2017 11:22:53 PM] frame rate: 24000/1001
    --[Information] [2/14/2017 11:22:53 PM] aspect ratio: 45:19 (2.368)
    --[Information] [2/14/2017 11:22:53 PM] Job command line: "C:\Users\Administrator\Desktop\MeGUI x86\tools\xvid_encraw\xvid_encraw.exe" -i "C:\DownloadJD\test\tes.mkv.avs" -pass1 "C:\DownloadJD\test\tes.mkv.stats" -bitrate 1550 -max_key_interval 250 -turbo -vhqmode 4 -bvhq -qtype 1 -nopacked -masking 1 -threads 8 -par 1 
    --[Information] [2/14/2017 11:22:53 PM] Process started
    --[Information] [2/14/2017 11:22:53 PM] Standard output stream
    --[Information] [2/14/2017 11:22:53 PM] Standard error stream
    ---[Information] [2/14/2017 11:23:16 PM] xvid_encraw - raw mpeg4 bitstream encoder written by Christoph Lampert
    ---[Information] [2/14/2017 11:42:13 PM] Trying to retrieve width and height from input header
    ---[Information] [2/14/2017 11:42:13 PM] Tot: enctime(ms) =799901.00,               length(bytes) = 1050226349
    ---[Information] [2/14/2017 11:42:13 PM] xvidcore build version: xvid-1.3.4
    ---[Information] [2/14/2017 11:42:13 PM] Avg: enctime(ms) =   4.84, fps = 206.78, length(bytes) =    6349
    ---[Information] [2/14/2017 11:42:13 PM] Bitstream version: 1.3.4
    ---[Information] [2/14/2017 11:42:13 PM] Detected CPU flags: ASM MMX MMXEXT SSE SSE2 SSE3 SSE41 TSC 
    ---[Information] [2/14/2017 11:42:13 PM] Detected 8 cpus, using 8 threads.
    ---[Information] [2/14/2017 11:42:13 PM] I frames:   1886 frames, size =   22234/41933619, quants =  2 / 2.00 /  2
    ---[Information] [2/14/2017 11:42:13 PM] P frames:  64628 frames, size =   12668/818767351, quants =  2 / 2.00 /  2
    ---[Information] [2/14/2017 11:42:13 PM] B frames:  98886 frames, size =    1916/189525379, quants =  4 / 4.00 /  4
    --[Information] [2/14/2017 11:42:13 PM] Postprocessing
    ---[Information] [2/14/2017 11:42:13 PM] Deleting intermediate files
    --[Information] [2/14/2017 11:42:13 PM] Job completed
    -[Information] Log for job3 (video, tes.mkv.avs -> tes.mkv.m4v)
    --[Information] [2/14/2017 11:42:13 PM] Started handling job
    --[Information] [2/14/2017 11:42:13 PM] Preprocessing
    -[NoImage] LoadPlugin("C:\Users\Administrator\Desktop\MeGUI x86\tools\lsmash\LSMASHSource.dll")
    -[NoImage] LWLibavVideoSource("C:\DownloadJD\test\tes.mkv")
    -[NoImage] #deinterlace
    -[NoImage] #crop
    -[NoImage] LanczosResize(720,304) # Lanczos (Sharp)
    -[NoImage] #denoise
    --[Information] [2/14/2017 11:42:13 PM] Avisynth input script
    --[Information] [2/14/2017 11:42:25 PM] resolution: 720x304
    --[Information] [2/14/2017 11:42:25 PM] frame rate: 24000/1001
    --[Information] [2/14/2017 11:42:25 PM] aspect ratio: 45:19 (2.368)
    --[Information] [2/14/2017 11:42:25 PM] Job command line: "C:\Users\Administrator\Desktop\MeGUI x86\tools\xvid_encraw\xvid_encraw.exe" -i "C:\DownloadJD\test\tes.mkv.avs" -o "C:\DownloadJD\test\tes.mkv.m4v" -pass2 "C:\DownloadJD\test\tes.mkv.stats" -bitrate 1550 -max_key_interval 250 -turbo -vhqmode 4 -bvhq -qtype 1 -nopacked -masking 1 -threads 8 -par 1 
    --[Information] [2/14/2017 11:42:25 PM] Process started
    --[Information] [2/14/2017 11:42:25 PM] Standard output stream
    --[Information] [2/14/2017 11:42:25 PM] Standard error stream
    ---[Information] [2/14/2017 11:42:48 PM] xvid_encraw - raw mpeg4 bitstream encoder written by Christoph Lampert
    ---[Information] [2/15/2017 12:07:33 AM] Trying to retrieve width and height from input header
    ---[Information] [2/15/2017 12:07:33 AM] Tot: enctime(ms) =1170979.00,               length(bytes) = 952752028
    ---[Information] [2/15/2017 12:07:33 AM] xvidcore build version: xvid-1.3.4
    ---[Information] [2/15/2017 12:07:33 AM] Avg: enctime(ms) =   7.08, fps = 141.25, length(bytes) =    5760
    ---[Information] [2/15/2017 12:07:33 AM] Bitstream version: 1.3.4
    ---[Information] [2/15/2017 12:07:33 AM] I frames:   1886 frames, size =   21976/41447852, quants =  2 / 2.00 /  2
    ---[Information] [2/15/2017 12:07:33 AM] Detected CPU flags: ASM MMX MMXEXT SSE SSE2 SSE3 SSE41 TSC 
    ---[Information] [2/15/2017 12:07:33 AM] P frames:  64628 frames, size =   11479/741929311, quants =  2 / 2.00 /  2
    ---[Information] [2/15/2017 12:07:33 AM] Detected 8 cpus, using 8 threads.
    ---[Information] [2/15/2017 12:07:33 AM] B frames:  98886 frames, size =    1712/169374865, quants =  4 / 4.00 /  4
    --[Information] [2/15/2017 12:07:45 AM] Final statistics
    ---[Information] [2/15/2017 12:07:45 AM] Video Bitrate Desired: 1550 kbit/s
    ---[Information] [2/15/2017 12:07:45 AM] Video Bitrate Obtained (approximate): 1104 kbit/s
    --[Information] [2/15/2017 12:07:45 AM] MediaInfo
    ---[Information] [2/15/2017 12:07:45 AM] File: C:\DownloadJD\test\tes.mkv.m4v
    -[Information] Format: MPEG-4 Visual
    -[Information] FormatString: MPEG-4 Visual
    -[Information] FileSize: 952752028
    -[Information] PlayTime: 
    ---[Information] General
    -[Information] ID: 
    -[Information] StreamOrder: 
    -[Information] Width: 720
    -[Information] Height: 304
    -[Information] FrameCount: 
    -[Information] FrameRate: 23.976
    -[Information] FrameRateOriginal: 
    -[Information] FrameRateMode: 
    -[Information] ScanType: Progressive
    -[Information] Codec: MPEG-4V
    -[Information] CodecString: MPEG-4 Visual
    -[Information] Bits Depth: 8
    -[Information] Format: MPEG-4 Visual
    -[Information] AspectRatio: 2.368
    -[Information] AspectRatioString: 2.35:1
    -[Information] Delay: 
    -[Information] Title: 
    -[Information] Language: 
    -[Information] LanguageString: 
    -[Information] Default: 
    -[Information] DefaultString: 
    -[Information] Forced: 
    -[Information] ForcedString: 
    ---[Information] Video
    --[Information] [2/15/2017 12:07:45 AM] Postprocessing
    -[Information] [2/15/2017 12:07:45 AM] Successfully deleted C:\DownloadJD\test\tes.mkv.stats
    ---[Information] [2/15/2017 12:07:45 AM] Deleting intermediate files
    --[Information] [2/15/2017 12:07:45 AM] Job completed
    -[Information] Log for job4 (mux, tes.mkv.m4v -> tes.mkv-muxed.avi)
    --[Information] [2/15/2017 12:07:45 AM] Started handling job
    --[Information] [2/15/2017 12:07:45 AM] Preprocessing
    --[Information] [2/15/2017 12:07:45 AM] MediaInfo
    ---[Information] [2/15/2017 12:07:45 AM] File: C:\DownloadJD\test\tes.mkv.m4v
    -[Information] Format: MPEG-4 Visual
    -[Information] FormatString: MPEG-4 Visual
    -[Information] FileSize: 952752028
    -[Information] PlayTime: 
    ---[Information] General
    -[Information] ID: 
    -[Information] StreamOrder: 
    -[Information] Width: 720
    -[Information] Height: 304
    -[Information] FrameCount: 
    -[Information] FrameRate: 23.976
    -[Information] FrameRateOriginal: 
    -[Information] FrameRateMode: 
    -[Information] ScanType: Progressive
    -[Information] Codec: MPEG-4V
    -[Information] CodecString: MPEG-4 Visual
    -[Information] Bits Depth: 8
    -[Information] Format: MPEG-4 Visual
    -[Information] AspectRatio: 2.368
    -[Information] AspectRatioString: 2.35:1
    -[Information] Delay: 
    -[Information] Title: 
    -[Information] Language: 
    -[Information] LanguageString: 
    -[Information] Default: 
    -[Information] DefaultString: 
    -[Information] Forced: 
    -[Information] ForcedString: 
    ---[Information] Video
    --[Information] [2/15/2017 12:07:45 AM] Job command line: "C:\Users\Administrator\Desktop\MeGUI x86\tools\ffmpeg\ffmpeg.exe" -y -i "C:\DownloadJD\test\tes.mkv.m4v" -vcodec copy -vtag XVID -r 23.976 "C:\DownloadJD\test\tes.mkv-muxed.avi" 
    --[Information] [2/15/2017 12:07:45 AM] Process started
    --[Information] [2/15/2017 12:07:45 AM] Standard output stream
    --[Information] [2/15/2017 12:07:45 AM] Standard error stream
    ---[Information] [2/15/2017 12:07:45 AM] ffmpeg version 3.2.2 Copyright (c) 2000-2016 the FFmpeg developers
    ---[Information] [2/15/2017 12:07:45 AM]   built with gcc 5.4.0 (GCC)
    ---[Information] [2/15/2017 12:07:45 AM]   configuration: --enable-gpl --enable-version3 --enable-dxva2 --enable-libmfx --enable-nvenc --enable-avisynth --enable-bzlib --enable-fontconfig --enable-frei0r --enable-gnutls --enable-iconv --enable-libass --enable-libbluray --enable-libbs2b --enable-libcaca --enable-libfreetype --enable-libgme --enable-libgsm --enable-libilbc --enable-libmodplug --enable-libmp3lame --enable-libopencore-amrnb --enable-libopencore-amrwb --enable-libopenh264 --enable-libopenjpeg --enable-libopus --enable-librtmp --enable-libsnappy --enable-libsoxr --enable-libspeex --enable-libtheora --enable-libtwolame --enable-libvidstab --enable-libvo-amrwbenc --enable-libvorbis --enable-libvpx --enable-libwavpack --enable-libwebp --enable-libx264 --enable-libx265 --enable-libxavs --enable-libxvid --enable-libzimg --enable-lzma --enable-decklink --enable-zlib
    ---[Information] [2/15/2017 12:07:45 AM]   libavutil      55. 34.100 / 55. 34.100
    ---[Information] [2/15/2017 12:07:45 AM]   libavcodec     57. 64.101 / 57. 64.101
    ---[Information] [2/15/2017 12:07:45 AM]   libavformat    57. 56.100 / 57. 56.100
    ---[Information] [2/15/2017 12:07:45 AM]   libavdevice    57.  1.100 / 57.  1.100
    ---[Information] [2/15/2017 12:07:45 AM]   libavfilter     6. 65.100 /  6. 65.100
    ---[Information] [2/15/2017 12:07:45 AM]   libswscale      4.  2.100 /  4.  2.100
    ---[Information] [2/15/2017 12:07:45 AM]   libswresample   2.  3.100 /  2.  3.100
    ---[Information] [2/15/2017 12:07:45 AM]   libpostproc    54.  1.100 / 54.  1.100
    ---[Information] [2/15/2017 12:07:45 AM] Input #0, m4v, from 'C:\DownloadJD\test\tes.mkv.m4v':
    ---[Information] [2/15/2017 12:07:45 AM]   Duration: N/A, start: 0.000000, bitrate: N/A
    ---[Information] [2/15/2017 12:07:45 AM]     Stream #0:0: Video: mpeg4 (Advanced Simple Profile), yuv420p, 720x304 [SAR 1:1 DAR 45:19], 23.98 tbr, 1200k tbn, 23.98 tbc
    ---[Information] [2/15/2017 12:07:45 AM] Output #0, avi, to 'C:\DownloadJD\test\tes.mkv-muxed.avi':
    ---[Information] [2/15/2017 12:07:45 AM]   Metadata:
    ---[Information] [2/15/2017 12:07:45 AM]     ISFT            : Lavf57.56.100
    ---[Information] [2/15/2017 12:07:45 AM]     Stream #0:0: Video: mpeg4 (Advanced Simple Profile) (XVID / 0x44495658), yuv420p, 720x304 [SAR 1:1 DAR 45:19], q=2-31, 23.98 tbr, 23.98 tbn, 23.98 tbc
    ---[Information] [2/15/2017 12:07:45 AM] Stream mapping:
    ---[Information] [2/15/2017 12:07:45 AM]   Stream #0:0 -> #0:0 (copy)
    ---[Information] [2/15/2017 12:07:45 AM] Press [q] to stop, [?] for help
    ---[Information] [2/15/2017 12:07:48 AM] video:930422kB audio:0kB subtitle:0kB other streams:0kB global headers:0kB muxing overhead: 0.425970%
    --[Information] [2/15/2017 12:07:48 AM] MediaInfo
    ---[Information] [2/15/2017 12:07:48 AM] File: C:\DownloadJD\test\tes.mkv-muxed.avi
    -[Information] Format: AVI
    -[Information] FormatString: AVI
    -[Information] FileSize: 956810468
    -[Information] PlayTime: 01:54:58.558
    ---[Information] General
    -[Information] ID: 0
    -[Information] StreamOrder: 0
    -[Information] Width: 720
    -[Information] Height: 304
    -[Information] FrameCount: 165400
    -[Information] FrameRate: 23.976
    -[Information] FrameRateOriginal: 
    -[Information] FrameRateMode: 
    -[Information] ScanType: Progressive
    -[Information] Codec: XVID
    -[Information] CodecString: XviD
    -[Information] Bits Depth: 8
    -[Information] Format: MPEG-4 Visual
    -[Information] AspectRatio: 2.368
    -[Information] AspectRatioString: 2.35:1
    -[Information] Delay: 
    -[Information] Title: 
    -[Information] Language: 
    -[Information] LanguageString: 
    -[Information] Default: 
    -[Information] DefaultString: 
    -[Information] Forced: 
    -[Information] ForcedString: 
    ---[Information] Video
    --[Information] [2/15/2017 12:07:48 AM] Postprocessing
    -[Information] [2/15/2017 12:07:49 AM] Successfully deleted C:\DownloadJD\test\tes.mkv.m4v
    ---[Information] [2/15/2017 12:07:48 AM] Deleting intermediate files
    --[Information] [2/15/2017 12:07:49 AM] Job completed
    2ter log gleiche falsche ziel groesse ;(

    Code:
    Preliminary log file only. During closing of MeGUI the well formed log file will be written.
    
    -[Information] Versions
    --[Information] [2/15/2017 12:19:06 AM] MeGUI: 2703
    --[Information] [2/15/2017 12:19:06 AM] Operating System: Windows 7 x64 SP1 (6.1.65536.7601)
    --[Information] [2/15/2017 12:19:06 AM] .NET Framework: 4.0 (4.0.0.0)
    --[Information] [2/15/2017 12:19:06 AM] .NET Framework: 4.6.x (4.6.01590)
    -[Information] Update detection
    --[Information] [2/15/2017 12:19:06 AM] Using cached update config and server: https://megui.org/auto/
    --[Information] [2/15/2017 12:19:06 AM] No package requires an update
    --[Information] [2/15/2017 12:19:06 AM] AviSynth: 2.6.0.6 (31-03-2015) (inactive)
    --[Information] [2/15/2017 12:19:06 AM] AviSynth portable: 2.6.0.6 (21-09-2015) (inactive)
    --[Information] [2/15/2017 12:19:06 AM] AvisynthWrapper:  (02-01-2009)
    --[Information] [2/15/2017 12:19:06 AM] Haali Media Splitter: not installed
    --[Information] [2/15/2017 12:19:06 AM] Haali DSS2: not installed
    --[Information] [2/15/2017 12:19:06 AM] ICSharpCode.SharpZipLib: 0.85.5.452 (07-08-2008)
    --[Information] [2/15/2017 12:19:06 AM] MediaInfo: 0.7.92.1 (02-02-2017)
    --[Information] [2/15/2017 12:19:06 AM] MediaInfoWrapper: 0.7.61.0 (06-01-2013)
    --[Information] [2/15/2017 12:19:06 AM] MessageBoxExLib: 1.0.2218.28317 (19-12-2008)
    --[Information] [2/15/2017 12:19:06 AM] SevenZipSharp: 0.64.3890.29348 (02-01-2011)
    --[Information] [2/15/2017 12:19:06 AM] 7z: 9.20 (18-11-2010)
    -[Information] FileIndexer
    -[Information] MkvInfo
    -[NoImage] File 'C:\DownloadJD\test\tes.mkv': container: Matroska [container_type:17 date_local:2017-02-14T15\c48\c22-08\c00 date_utc:2017-02-14T23\c48\c22Z duration:6898560000000 is_providing_timecodes:1 muxing_application:libebml\sv1.2.3\s+\slibmatroska\sv1.3.0 segment_uid:914cb8b3483b8227a52ad1f2103b0e27 writing_application:mkvmerge\sv5.6.0\s('Kenya\sKane')\sbuilt\son\sJun\s29\s2012\s15\c01\c44]
    -[NoImage] Track ID 0: video (MPEG-4p10/AVC/h.264) [codec_id:V_MPEG4/ISO/AVC codec_private_data:01640029ffe1001967640029acd98050045f97011000003e90000bb808f18319a001000668e978332c8b codec_private_length:42 content_encoding_algorithms:3 default_duration:41708332 default_track:1 display_dimensions:1280x536 enabled_track:1 forced_track:0 language:und minimum_timestamp:0 number:1 packetizer:mpeg4_p10_video pixel_dimensions:1280x536 uid:1]
    -[NoImage] Track ID 1: audio (AC-3/E-AC-3) [audio_channels:2 audio_sampling_frequency:48000 codec_id:A_AC3 codec_private_length:0 content_encoding_algorithms:3 default_duration:32000000 default_track:1 enabled_track:1 forced_track:1 language:ger minimum_timestamp:24000000 number:2 uid:2923908229]
    -[NoImage] Track ID 2: audio (DTS) [audio_channels:6 audio_sampling_frequency:48000 codec_id:A_DTS codec_private_length:0 content_encoding_algorithms:3 default_duration:10666666 default_track:0 enabled_track:1 forced_track:0 language:eng minimum_timestamp:0 number:3 uid:565231233]
    -[NoImage] Track ID 3: subtitles (SubRip/SRT) [codec_id:S_TEXT/UTF8 codec_private_length:0 default_track:0 enabled_track:1 forced_track:0 language:eng number:4 text_subtitles:1 uid:2992360330]
    -[NoImage] Track ID 4: subtitles (SubRip/SRT) [codec_id:S_TEXT/UTF8 codec_private_length:0 default_track:0 enabled_track:1 forced_track:0 language:eng number:5 text_subtitles:1 track_name:SDH uid:1452012446]
    -[NoImage] Chapters: 16 entries
    --[Information] [2/15/2017 12:19:19 AM] MkvInfo
    -[NoImage] CHAPTER01=00:00:00.000
    -[NoImage] CHAPTER01NAME=00:00:00.000
    -[NoImage] CHAPTER02=00:04:34.566
    -[NoImage] CHAPTER02NAME=00:04:34.566
    -[NoImage] CHAPTER03=00:10:16.825
    -[NoImage] CHAPTER03NAME=00:10:16.825
    -[NoImage] CHAPTER04=00:18:32.153
    -[NoImage] CHAPTER04NAME=00:18:32.153
    -[NoImage] CHAPTER05=00:24:37.017
    -[NoImage] CHAPTER05NAME=00:24:37.017
    -[NoImage] CHAPTER06=00:31:40.482
    -[NoImage] CHAPTER06NAME=00:31:40.482
    -[NoImage] CHAPTER07=00:38:33.811
    -[NoImage] CHAPTER07NAME=00:38:33.811
    -[NoImage] CHAPTER08=00:43:16.135
    -[NoImage] CHAPTER08NAME=00:43:16.135
    -[NoImage] CHAPTER09=00:48:24.527
    -[NoImage] CHAPTER09NAME=00:48:24.527
    -[NoImage] CHAPTER10=00:55:34.498
    -[NoImage] CHAPTER10NAME=00:55:34.498
    -[NoImage] CHAPTER11=01:05:04.359
    -[NoImage] CHAPTER11NAME=01:05:04.359
    -[NoImage] CHAPTER12=01:12:38.437
    -[NoImage] CHAPTER12NAME=01:12:38.437
    -[NoImage] CHAPTER13=01:22:14.346
    -[NoImage] CHAPTER13NAME=01:22:14.346
    -[NoImage] CHAPTER14=01:28:28.637
    -[NoImage] CHAPTER14NAME=01:28:28.637
    -[NoImage] CHAPTER15=01:35:00.904
    -[NoImage] CHAPTER15NAME=01:35:00.904
    -[NoImage] CHAPTER16=01:45:06.509
    -[NoImage] CHAPTER16NAME=01:45:06.509
    --[Information] [2/15/2017 12:19:19 AM] MkvExtract
    --[Information] [2/15/2017 12:19:19 AM] MediaInfo
    ---[Information] [2/15/2017 12:19:19 AM] File: C:\DownloadJD\test\tes.mkv
    -[Information] Format: Matroska
    -[Information] FormatString: Matroska
    -[Information] FileSize: 6052471719
    -[Information] PlayTime: 01:54:58.560
    ---[Information] General
    -[Information] ID: 1
    -[Information] StreamOrder: 0
    -[Information] Width: 1280
    -[Information] Height: 536
    -[Information] FrameCount: 165400
    -[Information] FrameRate: 23.976
    -[Information] FrameRateOriginal: 
    -[Information] FrameRateMode: CFR
    -[Information] ScanType: Progressive
    -[Information] Codec: V_MPEG4/ISO/AVC
    -[Information] CodecString: AVC
    -[Information] Bits Depth: 8
    -[Information] Format: AVC
    -[Information] AspectRatio: 2.388
    -[Information] AspectRatioString: 2.40:1
    -[Information] Delay: 0
    -[Information] Title: 
    -[Information] Language: 
    -[Information] LanguageString: 
    -[Information] Default: Yes
    -[Information] DefaultString: Yes
    -[Information] Forced: No
    -[Information] ForcedString: No
    ---[Information] Video
    -[Information] ID: 2
    -[Information] StreamOrder: 1
    -[Information] Format: AC-3
    -[Information] FormatProfile: 
    -[Information] FormatSettingsSBR: 
    -[Information] FormatSettingsPS: 
    -[Information] SamplingRate: 48000
    -[Information] SamplingRateString: 48.0 kHz
    -[Information] Channels: 2
    -[Information] ChannelsString: 2 channels
    -[Information] ChannelPositionsString2: 2/0/0
    -[Information] BitRateMode: CBR
    -[Information] Delay: 24
    -[Information] Title: 
    -[Information] Language: de
    -[Information] LanguageString: German
    -[Information] Default: Yes
    -[Information] DefaultString: Yes
    -[Information] Forced: Yes
    -[Information] ForcedString: Yes
    ---[Information] Audio
    -[Information] ID: 3
    -[Information] StreamOrder: 2
    -[Information] Format: DTS
    -[Information] FormatProfile: 
    -[Information] FormatSettingsSBR: 
    -[Information] FormatSettingsPS: 
    -[Information] SamplingRate: 48000
    -[Information] SamplingRateString: 48.0 kHz
    -[Information] Channels: 6
    -[Information] ChannelsString: 6 channels
    -[Information] ChannelPositionsString2: 3/2/0.1
    -[Information] BitRateMode: CBR
    -[Information] Delay: 0
    -[Information] Title: 
    -[Information] Language: en
    -[Information] LanguageString: English
    -[Information] Default: No
    -[Information] DefaultString: No
    -[Information] Forced: No
    -[Information] ForcedString: No
    ---[Information] Audio
    -[Information] ID: 4
    -[Information] StreamOrder: 3
    -[Information] Codec: S_TEXT/UTF8
    -[Information] CodecString: UTF-8
    -[Information] Delay: 
    -[Information] Title: 
    -[Information] Language: en
    -[Information] LanguageString: English
    -[Information] Default: No
    -[Information] DefaultString: No
    -[Information] Forced: No
    -[Information] ForcedString: No
    ---[Information] Text
    -[Information] ID: 5
    -[Information] StreamOrder: 4
    -[Information] Codec: S_TEXT/UTF8
    -[Information] CodecString: UTF-8
    -[Information] Delay: 
    -[Information] Title: SDH
    -[Information] Language: en
    -[Information] LanguageString: English
    -[Information] Default: No
    -[Information] DefaultString: No
    -[Information] Forced: No
    -[Information] ForcedString: No
    ---[Information] Text
    -[Information] Log for job1 (ext, tes.mkv -> )
    --[Information] [2/15/2017 12:19:24 AM] Started handling job
    --[Information] [2/15/2017 12:19:24 AM] Preprocessing
    --[Information] [2/15/2017 12:19:24 AM] MediaInfo
    ---[Information] [2/15/2017 12:19:24 AM] File: C:\DownloadJD\test\tes.mkv
    -[Information] Format: Matroska
    -[Information] FormatString: Matroska
    -[Information] FileSize: 6052471719
    -[Information] PlayTime: 01:54:58.560
    ---[Information] General
    -[Information] ID: 1
    -[Information] StreamOrder: 0
    -[Information] Width: 1280
    -[Information] Height: 536
    -[Information] FrameCount: 165400
    -[Information] FrameRate: 23.976
    -[Information] FrameRateOriginal: 
    -[Information] FrameRateMode: CFR
    -[Information] ScanType: Progressive
    -[Information] Codec: V_MPEG4/ISO/AVC
    -[Information] CodecString: AVC
    -[Information] Bits Depth: 8
    -[Information] Format: AVC
    -[Information] AspectRatio: 2.388
    -[Information] AspectRatioString: 2.40:1
    -[Information] Delay: 0
    -[Information] Title: 
    -[Information] Language: 
    -[Information] LanguageString: 
    -[Information] Default: Yes
    -[Information] DefaultString: Yes
    -[Information] Forced: No
    -[Information] ForcedString: No
    ---[Information] Video
    -[Information] ID: 2
    -[Information] StreamOrder: 1
    -[Information] Format: AC-3
    -[Information] FormatProfile: 
    -[Information] FormatSettingsSBR: 
    -[Information] FormatSettingsPS: 
    -[Information] SamplingRate: 48000
    -[Information] SamplingRateString: 48.0 kHz
    -[Information] Channels: 2
    -[Information] ChannelsString: 2 channels
    -[Information] ChannelPositionsString2: 2/0/0
    -[Information] BitRateMode: CBR
    -[Information] Delay: 24
    -[Information] Title: 
    -[Information] Language: de
    -[Information] LanguageString: German
    -[Information] Default: Yes
    -[Information] DefaultString: Yes
    -[Information] Forced: Yes
    -[Information] ForcedString: Yes
    ---[Information] Audio
    -[Information] ID: 3
    -[Information] StreamOrder: 2
    -[Information] Format: DTS
    -[Information] FormatProfile: 
    -[Information] FormatSettingsSBR: 
    -[Information] FormatSettingsPS: 
    -[Information] SamplingRate: 48000
    -[Information] SamplingRateString: 48.0 kHz
    -[Information] Channels: 6
    -[Information] ChannelsString: 6 channels
    -[Information] ChannelPositionsString2: 3/2/0.1
    -[Information] BitRateMode: CBR
    -[Information] Delay: 0
    -[Information] Title: 
    -[Information] Language: en
    -[Information] LanguageString: English
    -[Information] Default: No
    -[Information] DefaultString: No
    -[Information] Forced: No
    -[Information] ForcedString: No
    ---[Information] Audio
    -[Information] ID: 4
    -[Information] StreamOrder: 3
    -[Information] Codec: S_TEXT/UTF8
    -[Information] CodecString: UTF-8
    -[Information] Delay: 
    -[Information] Title: 
    -[Information] Language: en
    -[Information] LanguageString: English
    -[Information] Default: No
    -[Information] DefaultString: No
    -[Information] Forced: No
    -[Information] ForcedString: No
    ---[Information] Text
    -[Information] ID: 5
    -[Information] StreamOrder: 4
    -[Information] Codec: S_TEXT/UTF8
    -[Information] CodecString: UTF-8
    -[Information] Delay: 
    -[Information] Title: SDH
    -[Information] Language: en
    -[Information] LanguageString: English
    -[Information] Default: No
    -[Information] DefaultString: No
    -[Information] Forced: No
    -[Information] ForcedString: No
    ---[Information] Text
    --[Information] [2/15/2017 12:19:24 AM] Job command line: "C:\Users\Administrator\Desktop\MeGUI x86\tools\mkvmerge\mkvextract.exe" tracks "C:\DownloadJD\test\tes.mkv" --ui-language en 1:"C:\DownloadJD\test\tes - [0] German Delay 24ms.ac3"
    --[Information] [2/15/2017 12:19:24 AM] Process started
    --[Information] [2/15/2017 12:19:24 AM] Standard output stream
    --[Information] [2/15/2017 12:19:24 AM] Standard error stream
    ---[Information] [2/15/2017 12:19:24 AM] Extracting track 1 with the CodecID 'A_AC3' to the file 'C:\DownloadJD\test\tes - [0] German Delay 24ms.ac3'. Container format: Dolby Digital (AC-3)
    --[Information] [2/15/2017 12:19:31 AM] Postprocessing
    ---[Information] [2/15/2017 12:19:31 AM] Deleting intermediate files
    --[Information] [2/15/2017 12:19:31 AM] Job completed
    -[Information] Log for job2 (idx, tes.mkv -> tes.mkv.lwi)
    --[Information] [2/15/2017 12:19:31 AM] Started handling job
    --[Information] [2/15/2017 12:19:31 AM] Preprocessing
    --[Information] [2/15/2017 12:19:31 AM] Job command line: "C:\Windows\system32\ping.exe" 127.0.0.1 -t
    --[Information] [2/15/2017 12:19:32 AM] Process started
    --[Information] [2/15/2017 12:19:32 AM] Standard output stream
    --[Information] [2/15/2017 12:19:32 AM] Standard error stream
    ---[Information] [2/15/2017 12:19:32 AM] Creating LSMASH index...
    -[NoImage] LoadPlugin("C:\Users\Administrator\Desktop\MeGUI x86\tools\lsmash\LSMASHSource.dll")
    -[NoImage] LWLibavVideoSource("C:\DownloadJD\test\tes.mkv")
    ---[Information] [2/15/2017 12:19:32 AM] AviSynth script
    --[Information] [2/15/2017 12:19:44 AM] MediaInfo
    ---[Information] [2/15/2017 12:19:44 AM] File: C:\DownloadJD\test\tes.mkv.lwi
    ---[Information] Indexed File: C:\DownloadJD\test\tes.mkv
    -[Information] Format: Matroska
    -[Information] FormatString: Matroska
    -[Information] FileSize: 6052471719
    -[Information] PlayTime: 01:54:58.560
    ---[Information] General
    -[Information] ID: 1
    -[Information] StreamOrder: 0
    -[Information] Width: 1280
    -[Information] Height: 536
    -[Information] FrameCount: 165400
    -[Information] FrameRate: 23.976
    -[Information] FrameRateOriginal: 
    -[Information] FrameRateMode: CFR
    -[Information] ScanType: Progressive
    -[Information] Codec: V_MPEG4/ISO/AVC
    -[Information] CodecString: AVC
    -[Information] Bits Depth: 8
    -[Information] Format: AVC
    -[Information] AspectRatio: 2.388
    -[Information] AspectRatioString: 2.40:1
    -[Information] Delay: 0
    -[Information] Title: 
    -[Information] Language: 
    -[Information] LanguageString: 
    -[Information] Default: Yes
    -[Information] DefaultString: Yes
    -[Information] Forced: No
    -[Information] ForcedString: No
    ---[Information] Video
    -[Information] ID: 2
    -[Information] StreamOrder: 1
    -[Information] Format: AC-3
    -[Information] FormatProfile: 
    -[Information] FormatSettingsSBR: 
    -[Information] FormatSettingsPS: 
    -[Information] SamplingRate: 48000
    -[Information] SamplingRateString: 48.0 kHz
    -[Information] Channels: 2
    -[Information] ChannelsString: 2 channels
    -[Information] ChannelPositionsString2: 2/0/0
    -[Information] BitRateMode: CBR
    -[Information] Delay: 24
    -[Information] Title: 
    -[Information] Language: de
    -[Information] LanguageString: German
    -[Information] Default: Yes
    -[Information] DefaultString: Yes
    -[Information] Forced: Yes
    -[Information] ForcedString: Yes
    ---[Information] Audio
    -[Information] ID: 3
    -[Information] StreamOrder: 2
    -[Information] Format: DTS
    -[Information] FormatProfile: 
    -[Information] FormatSettingsSBR: 
    -[Information] FormatSettingsPS: 
    -[Information] SamplingRate: 48000
    -[Information] SamplingRateString: 48.0 kHz
    -[Information] Channels: 6
    -[Information] ChannelsString: 6 channels
    -[Information] ChannelPositionsString2: 3/2/0.1
    -[Information] BitRateMode: CBR
    -[Information] Delay: 0
    -[Information] Title: 
    -[Information] Language: en
    -[Information] LanguageString: English
    -[Information] Default: No
    -[Information] DefaultString: No
    -[Information] Forced: No
    -[Information] ForcedString: No
    ---[Information] Audio
    -[Information] ID: 4
    -[Information] StreamOrder: 3
    -[Information] Codec: S_TEXT/UTF8
    -[Information] CodecString: UTF-8
    -[Information] Delay: 
    -[Information] Title: 
    -[Information] Language: en
    -[Information] LanguageString: English
    -[Information] Default: No
    -[Information] DefaultString: No
    -[Information] Forced: No
    -[Information] ForcedString: No
    ---[Information] Text
    -[Information] ID: 5
    -[Information] StreamOrder: 4
    -[Information] Codec: S_TEXT/UTF8
    -[Information] CodecString: UTF-8
    -[Information] Delay: 
    -[Information] Title: SDH
    -[Information] Language: en
    -[Information] LanguageString: English
    -[Information] Default: No
    -[Information] DefaultString: No
    -[Information] Forced: No
    -[Information] ForcedString: No
    ---[Information] Text
    --[Information] [2/15/2017 12:19:44 AM] Postprocessing
    ---[Information] [2/15/2017 12:19:56 AM] Deleting intermediate files
    --[Information] [2/15/2017 12:19:56 AM] Job completed
    -[Information] AutoEncode job generation log
    --[Information] [2/15/2017 12:22:08 AM] Desired Size : 1.55 GB
    --[Information] [2/15/2017 12:22:08 AM] Split Size : null
    -[Information] [2/15/2017 12:22:08 AM] Video output file: C:\DownloadJD\test\tes.mkv.m4v
    -[Information] [2/15/2017 12:22:08 AM] Muxed output file: C:\DownloadJD\test\tes.mkv-muxed.avi
    -[Information] [2/15/2017 12:22:08 AM] File already exists. New muxed output filename: C:\DownloadJD\test\tes.mkv-muxed_0.avi
    -[Information] [2/15/2017 12:22:08 AM] Encodable audio stream 0: C:\DownloadJD\test\tes - [0] German Delay 0ms.ac3
    --[Information] Eliminating duplicate filenames
    -[Information] Log for job3 (audio, tes - [0] German Delay 24ms.ac3 -> tes - [0] German Delay 0ms.ac3)
    --[Information] [2/15/2017 12:22:08 AM] Started handling job
    --[Information] [2/15/2017 12:22:08 AM] Preprocessing
    --[Information] [2/15/2017 12:22:08 AM] MediaInfo
    ---[Information] [2/15/2017 12:22:08 AM] File: C:\DownloadJD\test\tes - [0] German Delay 24ms.ac3
    -[Information] Format: AC-3
    -[Information] FormatString: AC-3
    -[Information] FileSize: 193152512
    -[Information] PlayTime: 01:54:58.304
    ---[Information] General
    -[Information] ID: 
    -[Information] StreamOrder: 
    -[Information] Format: AC-3
    -[Information] FormatProfile: 
    -[Information] FormatSettingsSBR: 
    -[Information] FormatSettingsPS: 
    -[Information] SamplingRate: 48000
    -[Information] SamplingRateString: 48.0 kHz
    -[Information] Channels: 2
    -[Information] ChannelsString: 2 channels
    -[Information] ChannelPositionsString2: 2/0/0
    -[Information] BitRateMode: CBR
    -[Information] Delay: 
    -[Information] Title: 
    -[Information] Language: 
    -[Information] LanguageString: 
    -[Information] Default: 
    -[Information] DefaultString: 
    -[Information] Forced: 
    -[Information] ForcedString: 
    -[Information] [2/15/2017 12:22:08 AM] The language information is not available for this track. The default MeGUI language has been selected.
    ---[Information] Audio
    --[Information] [2/15/2017 12:22:08 AM] Trying to open the file with DirectShowSource()
    --[Information] [2/15/2017 12:22:08 AM] Successfully opened the file with DirectShowSource()
    -[NoImage] LoadPlugin("C:\Users\Administrator\Desktop\MeGUI x86\tools\avs\plugins\directshowsource.dll")
    -[NoImage] DirectShowSource("C:\DownloadJD\test\tes - [0] German Delay 24ms.ac3")
    -[NoImage] EnsureVBRMP3Sync()
    -[NoImage] DelayAudio(24.0/1000.0)
    -[NoImage] # detected channels: 2
    -[NoImage] # detected channel positions: 2/0/0
    -[NoImage] 32==Audiobits(last)?ConvertAudioTo16bit(last):last
    -[NoImage] return last
    --[Information] [2/15/2017 12:22:08 AM] Avisynth script
    --[Information] [2/15/2017 12:22:08 AM] Command line used: -i - -y -acodec ac3 -ab 224k "{0}"
    --[Information] [2/15/2017 12:22:08 AM] Avisynth script environment opened
    --[Information] [2/15/2017 12:22:08 AM] Script loaded
    --[Information] [2/15/2017 12:22:08 AM] Output Decoder
    ---[Information] [2/15/2017 12:22:08 AM] Channels: 2
    ---[Information] [2/15/2017 12:22:08 AM] Bits per sample: 16
    ---[Information] [2/15/2017 12:22:08 AM] Sample rate: 48000
    --[Information] [2/15/2017 12:22:08 AM] Job command line: C:\Users\Administrator\Desktop\MeGUI x86\tools\ffmpeg\ffmpeg.exe -i - -y -acodec ac3 -ab 224k "C:\DownloadJD\test\tes - [0] German Delay 0ms.ac3"
    --[Information] [2/15/2017 12:22:08 AM] Process started
    --[Information] [2/15/2017 12:22:08 AM] Standard output stream
    --[Information] [2/15/2017 12:22:08 AM] Standard error stream
    ---[Information] [2/15/2017 12:22:08 AM] ffmpeg version 3.2.2 Copyright (c) 2000-2016 the FFmpeg developers
    ---[Information] [2/15/2017 12:22:08 AM]   built with gcc 5.4.0 (GCC)
    ---[Information] [2/15/2017 12:22:08 AM]   configuration: --enable-gpl --enable-version3 --enable-dxva2 --enable-libmfx --enable-nvenc --enable-avisynth --enable-bzlib --enable-fontconfig --enable-frei0r --enable-gnutls --enable-iconv --enable-libass --enable-libbluray --enable-libbs2b --enable-libcaca --enable-libfreetype --enable-libgme --enable-libgsm --enable-libilbc --enable-libmodplug --enable-libmp3lame --enable-libopencore-amrnb --enable-libopencore-amrwb --enable-libopenh264 --enable-libopenjpeg --enable-libopus --enable-librtmp --enable-libsnappy --enable-libsoxr --enable-libspeex --enable-libtheora --enable-libtwolame --enable-libvidstab --enable-libvo-amrwbenc --enable-libvorbis --enable-libvpx --enable-libwavpack --enable-libwebp --enable-libx264 --enable-libx265 --enable-libxavs --enable-libxvid --enable-libzimg --enable-lzma --enable-decklink --enable-zlib
    ---[Information] [2/15/2017 12:22:08 AM]   libavutil      55. 34.100 / 55. 34.100
    ---[Information] [2/15/2017 12:22:08 AM]   libavcodec     57. 64.101 / 57. 64.101
    ---[Information] [2/15/2017 12:22:08 AM]   libavformat    57. 56.100 / 57. 56.100
    ---[Information] [2/15/2017 12:22:08 AM]   libavdevice    57.  1.100 / 57.  1.100
    ---[Information] [2/15/2017 12:22:08 AM]   libavfilter     6. 65.100 /  6. 65.100
    ---[Information] [2/15/2017 12:22:08 AM]   libswscale      4.  2.100 /  4.  2.100
    ---[Information] [2/15/2017 12:22:08 AM]   libswresample   2.  3.100 /  2.  3.100
    ---[Information] [2/15/2017 12:22:08 AM]   libpostproc    54.  1.100 / 54.  1.100
    ---[Information] [2/15/2017 12:22:08 AM] Guessed Channel Layout for Input Stream #0.0 : stereo
    ---[Information] [2/15/2017 12:22:08 AM] Input #0, wav, from 'pipe:':
    ---[Information] [2/15/2017 12:22:08 AM]   Duration: N/A, bitrate: 1536 kb/s
    ---[Information] [2/15/2017 12:22:08 AM]     Stream #0:0: Audio: pcm_s16le ([1][0][0][0] / 0x0001), 48000 Hz, stereo, s16, 1536 kb/s
    ---[Information] [2/15/2017 12:22:08 AM] Output #0, ac3, to 'C:\DownloadJD\test\tes - [0] German Delay 0ms.ac3':
    ---[Information] [2/15/2017 12:22:08 AM]   Metadata:
    ---[Information] [2/15/2017 12:22:08 AM]     encoder         : Lavf57.56.100
    ---[Information] [2/15/2017 12:22:08 AM]     Stream #0:0: Audio: ac3, 48000 Hz, stereo, fltp, 224 kb/s
    ---[Information] [2/15/2017 12:22:08 AM]     Metadata:
    ---[Information] [2/15/2017 12:22:08 AM]       encoder         : Lavc57.64.101 ac3
    ---[Information] [2/15/2017 12:22:08 AM] Stream mapping:
    ---[Information] [2/15/2017 12:22:08 AM]   Stream #0:0 -> #0:0 (pcm_s16le (native) -> ac3 (native))
    ---[Information] [2/15/2017 12:22:35 AM] video:0kB audio:188626kB subtitle:0kB other streams:0kB global headers:0kB muxing overhead: 0.000000%
    --[Information] [2/15/2017 12:22:35 AM] MediaInfo
    ---[Information] [2/15/2017 12:22:35 AM] File: C:\DownloadJD\test\tes - [0] German Delay 0ms.ac3
    -[Information] Format: AC-3
    -[Information] FormatString: AC-3
    -[Information] FileSize: 193153408
    -[Information] PlayTime: 01:54:58.336
    ---[Information] General
    -[Information] ID: 
    -[Information] StreamOrder: 
    -[Information] Format: AC-3
    -[Information] FormatProfile: 
    -[Information] FormatSettingsSBR: 
    -[Information] FormatSettingsPS: 
    -[Information] SamplingRate: 48000
    -[Information] SamplingRateString: 48.0 kHz
    -[Information] Channels: 2
    -[Information] ChannelsString: 2 channels
    -[Information] ChannelPositionsString2: 2/0/0
    -[Information] BitRateMode: CBR
    -[Information] Delay: 
    -[Information] Title: 
    -[Information] Language: 
    -[Information] LanguageString: 
    -[Information] Default: 
    -[Information] DefaultString: 
    -[Information] Forced: 
    -[Information] ForcedString: 
    -[Information] [2/15/2017 12:22:35 AM] The language information is not available for this track. The default MeGUI language has been selected.
    ---[Information] Audio
    --[Information] [2/15/2017 12:22:35 AM] Postprocessing
    ---[Information] [2/15/2017 12:22:35 AM] Deleting intermediate files
    --[Information] [2/15/2017 12:22:35 AM] Job completed
    -[Information] Log for job4 (video, tes.mkv.avs -> )
    --[Information] [2/15/2017 12:22:35 AM] Started handling job
    --[Information] [2/15/2017 12:22:35 AM] Preprocessing
    -[Information] [2/15/2017 12:22:46 AM] Desired size after subtracting audio: 1428953 KBs
    -[Information] [2/15/2017 12:22:46 AM] Calculated desired bitrate: 1696 kbit/s
    ---[Information] Bitrate calculation for video
    -[NoImage] LoadPlugin("C:\Users\Administrator\Desktop\MeGUI x86\tools\lsmash\LSMASHSource.dll")
    -[NoImage] LWLibavVideoSource("C:\DownloadJD\test\tes.mkv")
    -[NoImage] #deinterlace
    -[NoImage] #crop
    -[NoImage] LanczosResize(720,304) # Lanczos (Sharp)
    -[NoImage] #denoise
    --[Information] [2/15/2017 12:22:46 AM] Avisynth input script
    --[Information] [2/15/2017 12:22:58 AM] resolution: 720x304
    --[Information] [2/15/2017 12:22:58 AM] frame rate: 24000/1001
    --[Information] [2/15/2017 12:22:58 AM] aspect ratio: 45:19 (2.368)
    --[Information] [2/15/2017 12:22:58 AM] Job command line: "C:\Users\Administrator\Desktop\MeGUI x86\tools\xvid_encraw\xvid_encraw.exe" -i "C:\DownloadJD\test\tes.mkv.avs" -pass1 "C:\DownloadJD\test\tes.mkv.stats" -bitrate 1696 -max_key_interval 250 -turbo -vhqmode 4 -bvhq -nopacked -masking 1 -notrellis -threads 8 -par 1 
    --[Information] [2/15/2017 12:22:58 AM] Process started
    --[Information] [2/15/2017 12:22:58 AM] Standard output stream
    --[Information] [2/15/2017 12:22:58 AM] Standard error stream
    ---[Information] [2/15/2017 12:23:21 AM] xvid_encraw - raw mpeg4 bitstream encoder written by Christoph Lampert
    ---[Information] [2/15/2017 12:41:54 AM] Trying to retrieve width and height from input header
    ---[Information] [2/15/2017 12:41:54 AM] Tot: enctime(ms) =769431.00,               length(bytes) = 1053799762
    ---[Information] [2/15/2017 12:41:54 AM] xvidcore build version: xvid-1.3.4
    ---[Information] [2/15/2017 12:41:54 AM] Avg: enctime(ms) =   4.65, fps = 214.96, length(bytes) =    6371
    ---[Information] [2/15/2017 12:41:54 AM] Bitstream version: 1.3.4
    ---[Information] [2/15/2017 12:41:54 AM] I frames:   1875 frames, size =   20561/38552546, quants =  2 / 2.00 /  2
    ---[Information] [2/15/2017 12:41:54 AM] Detected CPU flags: ASM MMX MMXEXT SSE SSE2 SSE3 SSE41 TSC 
    ---[Information] [2/15/2017 12:41:54 AM] P frames:  64247 frames, size =   12888/828034008, quants =  2 / 2.00 /  2
    ---[Information] [2/15/2017 12:41:54 AM] Detected 8 cpus, using 8 threads.
    ---[Information] [2/15/2017 12:41:54 AM] B frames:  99278 frames, size =    1885/187213208, quants =  4 / 4.00 /  4
    --[Information] [2/15/2017 12:41:54 AM] Postprocessing
    ---[Information] [2/15/2017 12:41:54 AM] Deleting intermediate files
    --[Information] [2/15/2017 12:41:54 AM] Job completed
    -[Information] Log for job5 (video, tes.mkv.avs -> tes.mkv.m4v)
    --[Information] [2/15/2017 12:41:54 AM] Started handling job
    --[Information] [2/15/2017 12:41:54 AM] Preprocessing
    -[NoImage] LoadPlugin("C:\Users\Administrator\Desktop\MeGUI x86\tools\lsmash\LSMASHSource.dll")
    -[NoImage] LWLibavVideoSource("C:\DownloadJD\test\tes.mkv")
    -[NoImage] #deinterlace
    -[NoImage] #crop
    -[NoImage] LanczosResize(720,304) # Lanczos (Sharp)
    -[NoImage] #denoise
    --[Information] [2/15/2017 12:41:54 AM] Avisynth input script
    --[Information] [2/15/2017 12:42:05 AM] resolution: 720x304
    --[Information] [2/15/2017 12:42:05 AM] frame rate: 24000/1001
    --[Information] [2/15/2017 12:42:05 AM] aspect ratio: 45:19 (2.368)
    --[Information] [2/15/2017 12:42:05 AM] Job command line: "C:\Users\Administrator\Desktop\MeGUI x86\tools\xvid_encraw\xvid_encraw.exe" -i "C:\DownloadJD\test\tes.mkv.avs" -o "C:\DownloadJD\test\tes.mkv.m4v" -pass2 "C:\DownloadJD\test\tes.mkv.stats" -bitrate 1696 -max_key_interval 250 -turbo -vhqmode 4 -bvhq -nopacked -masking 1 -notrellis -threads 8 -par 1 
    --[Information] [2/15/2017 12:42:05 AM] Process started
    --[Information] [2/15/2017 12:42:05 AM] Standard output stream
    --[Information] [2/15/2017 12:42:05 AM] Standard error stream
    ---[Information] [2/15/2017 12:42:28 AM] xvid_encraw - raw mpeg4 bitstream encoder written by Christoph Lampert
    ---[Information] [2/15/2017 1:03:20 AM] Trying to retrieve width and height from input header
    ---[Information] [2/15/2017 1:03:20 AM] Tot: enctime(ms) =971744.00,               length(bytes) = 957871934
    ---[Information] [2/15/2017 1:03:20 AM] xvidcore build version: xvid-1.3.4
    ---[Information] [2/15/2017 1:03:20 AM] Bitstream version: 1.3.4
    ---[Information] [2/15/2017 1:03:20 AM] Detected CPU flags: ASM MMX MMXEXT SSE SSE2 SSE3 SSE41 TSC 
    ---[Information] [2/15/2017 1:03:20 AM] Avg: enctime(ms) =   5.88, fps = 170.21, length(bytes) =    5791
    ---[Information] [2/15/2017 1:03:20 AM] Detected 8 cpus, using 8 threads.
    ---[Information] [2/15/2017 1:03:20 AM] I frames:   1875 frames, size =   20325/38110940, quants =  2 / 2.00 /  2
    ---[Information] [2/15/2017 1:03:20 AM] P frames:  64247 frames, size =   11618/746424222, quants =  2 / 2.00 /  2
    ---[Information] [2/15/2017 1:03:20 AM] B frames:  99278 frames, size =    1745/173336772, quants =  4 / 4.00 /  4
    --[Information] [2/15/2017 1:03:31 AM] Final statistics
    ---[Information] [2/15/2017 1:03:31 AM] Video Bitrate Desired: 1696 kbit/s
    ---[Information] [2/15/2017 1:03:31 AM] Video Bitrate Obtained (approximate): 1110 kbit/s
    --[Information] [2/15/2017 1:03:31 AM] MediaInfo
    ---[Information] [2/15/2017 1:03:31 AM] File: C:\DownloadJD\test\tes.mkv.m4v
    -[Information] Format: MPEG-4 Visual
    -[Information] FormatString: MPEG-4 Visual
    -[Information] FileSize: 957871934
    -[Information] PlayTime: 
    ---[Information] General
    -[Information] ID: 
    -[Information] StreamOrder: 
    -[Information] Width: 720
    -[Information] Height: 304
    -[Information] FrameCount: 
    -[Information] FrameRate: 23.976
    -[Information] FrameRateOriginal: 
    -[Information] FrameRateMode: 
    -[Information] ScanType: Progressive
    -[Information] Codec: MPEG-4V
    -[Information] CodecString: MPEG-4 Visual
    -[Information] Bits Depth: 8
    -[Information] Format: MPEG-4 Visual
    -[Information] AspectRatio: 2.368
    -[Information] AspectRatioString: 2.35:1
    -[Information] Delay: 
    -[Information] Title: 
    -[Information] Language: 
    -[Information] LanguageString: 
    -[Information] Default: 
    -[Information] DefaultString: 
    -[Information] Forced: 
    -[Information] ForcedString: 
    ---[Information] Video
    --[Information] [2/15/2017 1:03:31 AM] Postprocessing
    -[Information] [2/15/2017 1:03:31 AM] Successfully deleted C:\DownloadJD\test\tes.mkv.stats
    ---[Information] [2/15/2017 1:03:31 AM] Deleting intermediate files
    --[Information] [2/15/2017 1:03:31 AM] Job completed
    -[Information] Log for job6 (mux, tes.mkv.m4v -> tes.mkv-muxed_01.avi)
    --[Information] [2/15/2017 1:03:31 AM] Started handling job
    --[Information] [2/15/2017 1:03:31 AM] Preprocessing
    --[Information] [2/15/2017 1:03:31 AM] MediaInfo
    ---[Information] [2/15/2017 1:03:31 AM] File: C:\DownloadJD\test\tes.mkv.m4v
    -[Information] Format: MPEG-4 Visual
    -[Information] FormatString: MPEG-4 Visual
    -[Information] FileSize: 957871934
    -[Information] PlayTime: 
    ---[Information] General
    -[Information] ID: 
    -[Information] StreamOrder: 
    -[Information] Width: 720
    -[Information] Height: 304
    -[Information] FrameCount: 
    -[Information] FrameRate: 23.976
    -[Information] FrameRateOriginal: 
    -[Information] FrameRateMode: 
    -[Information] ScanType: Progressive
    -[Information] Codec: MPEG-4V
    -[Information] CodecString: MPEG-4 Visual
    -[Information] Bits Depth: 8
    -[Information] Format: MPEG-4 Visual
    -[Information] AspectRatio: 2.368
    -[Information] AspectRatioString: 2.35:1
    -[Information] Delay: 
    -[Information] Title: 
    -[Information] Language: 
    -[Information] LanguageString: 
    -[Information] Default: 
    -[Information] DefaultString: 
    -[Information] Forced: 
    -[Information] ForcedString: 
    ---[Information] Video
    --[Information] [2/15/2017 1:03:32 AM] Job command line: "C:\Users\Administrator\Desktop\MeGUI x86\tools\ffmpeg\ffmpeg.exe" -y -i "C:\DownloadJD\test\tes.mkv.m4v" -vcodec copy -vtag XVID -r 23.976 "C:\DownloadJD\test\tes.mkv-muxed_01.avi" 
    --[Information] [2/15/2017 1:03:32 AM] Process started
    --[Information] [2/15/2017 1:03:32 AM] Standard output stream
    --[Information] [2/15/2017 1:03:32 AM] Standard error stream
    ---[Information] [2/15/2017 1:03:32 AM] ffmpeg version 3.2.2 Copyright (c) 2000-2016 the FFmpeg developers
    ---[Information] [2/15/2017 1:03:32 AM]   built with gcc 5.4.0 (GCC)
    ---[Information] [2/15/2017 1:03:32 AM]   configuration: --enable-gpl --enable-version3 --enable-dxva2 --enable-libmfx --enable-nvenc --enable-avisynth --enable-bzlib --enable-fontconfig --enable-frei0r --enable-gnutls --enable-iconv --enable-libass --enable-libbluray --enable-libbs2b --enable-libcaca --enable-libfreetype --enable-libgme --enable-libgsm --enable-libilbc --enable-libmodplug --enable-libmp3lame --enable-libopencore-amrnb --enable-libopencore-amrwb --enable-libopenh264 --enable-libopenjpeg --enable-libopus --enable-librtmp --enable-libsnappy --enable-libsoxr --enable-libspeex --enable-libtheora --enable-libtwolame --enable-libvidstab --enable-libvo-amrwbenc --enable-libvorbis --enable-libvpx --enable-libwavpack --enable-libwebp --enable-libx264 --enable-libx265 --enable-libxavs --enable-libxvid --enable-libzimg --enable-lzma --enable-decklink --enable-zlib
    ---[Information] [2/15/2017 1:03:32 AM]   libavutil      55. 34.100 / 55. 34.100
    ---[Information] [2/15/2017 1:03:32 AM]   libavcodec     57. 64.101 / 57. 64.101
    ---[Information] [2/15/2017 1:03:32 AM]   libavformat    57. 56.100 / 57. 56.100
    ---[Information] [2/15/2017 1:03:32 AM]   libavdevice    57.  1.100 / 57.  1.100
    ---[Information] [2/15/2017 1:03:32 AM]   libavfilter     6. 65.100 /  6. 65.100
    ---[Information] [2/15/2017 1:03:32 AM]   libswscale      4.  2.100 /  4.  2.100
    ---[Information] [2/15/2017 1:03:32 AM]   libswresample   2.  3.100 /  2.  3.100
    ---[Information] [2/15/2017 1:03:32 AM]   libpostproc    54.  1.100 / 54.  1.100
    ---[Information] [2/15/2017 1:03:32 AM] Input #0, m4v, from 'C:\DownloadJD\test\tes.mkv.m4v':
    ---[Information] [2/15/2017 1:03:32 AM]   Duration: N/A, start: 0.000000, bitrate: N/A
    ---[Information] [2/15/2017 1:03:32 AM]     Stream #0:0: Video: mpeg4 (Advanced Simple Profile), yuv420p, 720x304 [SAR 1:1 DAR 45:19], 23.98 tbr, 1200k tbn, 23.98 tbc
    ---[Information] [2/15/2017 1:03:32 AM] Output #0, avi, to 'C:\DownloadJD\test\tes.mkv-muxed_01.avi':
    ---[Information] [2/15/2017 1:03:32 AM]   Metadata:
    ---[Information] [2/15/2017 1:03:32 AM]     ISFT            : Lavf57.56.100
    ---[Information] [2/15/2017 1:03:32 AM]     Stream #0:0: Video: mpeg4 (Advanced Simple Profile) (XVID / 0x44495658), yuv420p, 720x304 [SAR 1:1 DAR 45:19], q=2-31, 23.98 tbr, 23.98 tbn, 23.98 tbc
    ---[Information] [2/15/2017 1:03:32 AM] Stream mapping:
    ---[Information] [2/15/2017 1:03:32 AM]   Stream #0:0 -> #0:0 (copy)
    ---[Information] [2/15/2017 1:03:32 AM] Press [q] to stop, [?] for help
    ---[Information] [2/15/2017 1:03:35 AM] video:935422kB audio:0kB subtitle:0kB other streams:0kB global headers:0kB muxing overhead: 0.423633%
    --[Information] [2/15/2017 1:03:35 AM] MediaInfo
    ---[Information] [2/15/2017 1:03:35 AM] File: C:\DownloadJD\test\tes.mkv-muxed_01.avi
    -[Information] Format: AVI
    -[Information] FormatString: AVI
    -[Information] FileSize: 961929800
    -[Information] PlayTime: 01:54:58.558
    ---[Information] General
    -[Information] ID: 0
    -[Information] StreamOrder: 0
    -[Information] Width: 720
    -[Information] Height: 304
    -[Information] FrameCount: 165400
    -[Information] FrameRate: 23.976
    -[Information] FrameRateOriginal: 
    -[Information] FrameRateMode: 
    -[Information] ScanType: Progressive
    -[Information] Codec: XVID
    -[Information] CodecString: XviD
    -[Information] Bits Depth: 8
    -[Information] Format: MPEG-4 Visual
    -[Information] AspectRatio: 2.368
    -[Information] AspectRatioString: 2.35:1
    -[Information] Delay: 
    -[Information] Title: 
    -[Information] Language: 
    -[Information] LanguageString: 
    -[Information] Default: 
    -[Information] DefaultString: 
    -[Information] Forced: 
    -[Information] ForcedString: 
    ---[Information] Video
    --[Information] [2/15/2017 1:03:35 AM] Postprocessing
    -[Information] [2/15/2017 1:03:35 AM] Successfully deleted C:\DownloadJD\test\tes.mkv.m4v
    ---[Information] [2/15/2017 1:03:35 AM] Deleting intermediate files
    --[Information] [2/15/2017 1:03:35 AM] Job completed
    -[Information] Log for job7 (mux, tes.mkv-muxed_01.avi -> tes.mkv-muxed_0.avi)
    --[Information] [2/15/2017 1:03:35 AM] Started handling job
    --[Information] [2/15/2017 1:03:35 AM] Preprocessing
    --[Information] [2/15/2017 1:03:35 AM] MediaInfo
    ---[Information] [2/15/2017 1:03:35 AM] File: C:\DownloadJD\test\tes - [0] German Delay 0ms.ac3
    -[Information] Format: AC-3
    -[Information] FormatString: AC-3
    -[Information] FileSize: 193153408
    -[Information] PlayTime: 01:54:58.336
    ---[Information] General
    -[Information] ID: 
    -[Information] StreamOrder: 
    -[Information] Format: AC-3
    -[Information] FormatProfile: 
    -[Information] FormatSettingsSBR: 
    -[Information] FormatSettingsPS: 
    -[Information] SamplingRate: 48000
    -[Information] SamplingRateString: 48.0 kHz
    -[Information] Channels: 2
    -[Information] ChannelsString: 2 channels
    -[Information] ChannelPositionsString2: 2/0/0
    -[Information] BitRateMode: CBR
    -[Information] Delay: 
    -[Information] Title: 
    -[Information] Language: 
    -[Information] LanguageString: 
    -[Information] Default: 
    -[Information] DefaultString: 
    -[Information] Forced: 
    -[Information] ForcedString: 
    -[Information] [2/15/2017 1:03:35 AM] The language information is not available for this track. The default MeGUI language has been selected.
    ---[Information] Audio
    --[Information] [2/15/2017 1:03:35 AM] MediaInfo
    ---[Information] [2/15/2017 1:03:35 AM] File: C:\DownloadJD\test\tes.mkv-muxed_01.avi
    -[Information] Format: AVI
    -[Information] FormatString: AVI
    -[Information] FileSize: 961929800
    -[Information] PlayTime: 01:54:58.558
    ---[Information] General
    -[Information] ID: 0
    -[Information] StreamOrder: 0
    -[Information] Width: 720
    -[Information] Height: 304
    -[Information] FrameCount: 165400
    -[Information] FrameRate: 23.976
    -[Information] FrameRateOriginal: 
    -[Information] FrameRateMode: 
    -[Information] ScanType: Progressive
    -[Information] Codec: XVID
    -[Information] CodecString: XviD
    -[Information] Bits Depth: 8
    -[Information] Format: MPEG-4 Visual
    -[Information] AspectRatio: 2.368
    -[Information] AspectRatioString: 2.35:1
    -[Information] Delay: 
    -[Information] Title: 
    -[Information] Language: 
    -[Information] LanguageString: 
    -[Information] Default: 
    -[Information] DefaultString: 
    -[Information] Forced: 
    -[Information] ForcedString: 
    ---[Information] Video
    -[NoImage] CLEAR
    -[NoImage] LOAD C:\DownloadJD\test\tes - [0] German Delay 0ms.ac3
    -[NoImage] SET OUTPUT OPTIONS
    -[NoImage] SET OPTION AUDIO LNGCODE 1 German
    -[NoImage] LOAD C:\DownloadJD\test\tes.mkv-muxed_01.avi
    -[NoImage] SELECT FILE 2
    -[NoImage] ADD VIDEOSOURCE
    -[NoImage] DESELECT FILE 2
    -[NoImage] SET OUTPUT OPTIONS
    -[NoImage] SET OPTION NUMBERING ON
    -[NoImage] SET OPTION MAXFILESIZE ON
    --[Warning] [2/15/2017 1:03:35 AM] The output file will be splitted every 2GB. If this is not intended select the device type "PC" - but this will reduce compatibility for hardware players.
    -[NoImage] CLEAR
    -[NoImage] LOAD C:\DownloadJD\test\tes - [0] German Delay 0ms.ac3
    -[NoImage] SET OUTPUT OPTIONS
    -[NoImage] SET OPTION AUDIO LNGCODE 1 German
    -[NoImage] LOAD C:\DownloadJD\test\tes.mkv-muxed_01.avi
    -[NoImage] SELECT FILE 2
    -[NoImage] ADD VIDEOSOURCE
    -[NoImage] DESELECT FILE 2
    -[NoImage] SET OUTPUT OPTIONS
    -[NoImage] SET OPTION NUMBERING ON
    -[NoImage] SET OPTION MAXFILESIZE ON
    -[NoImage] SET OPTION MAXFILESIZE 2000
    -[NoImage] SET INPUT OPTIONS
    -[NoImage] SET OPTION MP3 VERIFY CBR ALWAYS
    -[NoImage] SET OPTION MP3 VERIFY RESDLG OFF
    -[NoImage] SET OPTION AVI FIXDX50 1
    -[NoImage] SET OPTION CHAPTERS IMPORT 1
    -[NoImage] SET OUTPUT OPTIONS
    -[NoImage] SET OPTION ALL SUBTITLES 1
    -[NoImage] SET OPTION ALL AUDIO 1
    -[NoImage] SET OPTION CLOSEAPP 1
    -[NoImage] SET OPTION DONEDLG 0
    -[NoImage] SET OPTION OVERWRITEDLG 0
    -[NoImage] SET OPTION PRELOAD 200
    -[NoImage] SET OPTION OPENDML 0
    -[NoImage] SET OPTION RECLISTS 0
    -[NoImage] SET OPTION AVI ADDJUNKBEFOREHEADERS 0
    -[NoImage] SET OPTION AUDIO INTERLEAVE 4 FR
    -[NoImage] START C:\DownloadJD\test\tes.mkv-muxed_0.avi
    --[Information] [2/15/2017 1:03:35 AM] mux script
    --[Information] [2/15/2017 1:03:35 AM] Job command line: "C:\Users\Administrator\Desktop\MeGUI x86\tools\avimux_gui\avimux_gui.exe" "C:\DownloadJD\test\tes.mkv-muxed_0.mux"
    --[Information] [2/15/2017 1:03:35 AM] Process started
    --[Information] [2/15/2017 1:03:35 AM] Standard output stream
    --[Information] [2/15/2017 1:03:35 AM] Standard error stream
    ---[Information] [2/15/2017 1:03:48 AM] Unicode flag: 1
    ---[Information] [2/15/2017 1:03:48 AM] (mkv parser) file is b0rked: 
    ---[Information] [2/15/2017 1:03:48 AM]   pos. 1: 1st byte of EBML-ID indicates size larger than 4
    --[Information] [2/15/2017 1:03:48 AM] MediaInfo
    ---[Information] [2/15/2017 1:03:48 AM] File: C:\DownloadJD\test\tes.mkv-muxed_0 (1).avi
    -[Information] Format: AVI
    -[Information] FormatString: AVI
    -[Information] FileSize: 1157668408
    -[Information] PlayTime: 01:54:58.558
    ---[Information] General
    -[Information] ID: 0
    -[Information] StreamOrder: 0
    -[Information] Width: 720
    -[Information] Height: 304
    -[Information] FrameCount: 165400
    -[Information] FrameRate: 23.976
    -[Information] FrameRateOriginal: 
    -[Information] FrameRateMode: 
    -[Information] ScanType: Progressive
    -[Information] Codec: XVID
    -[Information] CodecString: XviD
    -[Information] Bits Depth: 8
    -[Information] Format: MPEG-4 Visual
    -[Information] AspectRatio: 2.368
    -[Information] AspectRatioString: 2.35:1
    -[Information] Delay: 0
    -[Information] Title: 
    -[Information] Language: 
    -[Information] LanguageString: 
    -[Information] Default: 
    -[Information] DefaultString: 
    -[Information] Forced: 
    -[Information] ForcedString: 
    ---[Information] Video
    -[Information] ID: 1
    -[Information] StreamOrder: 1
    -[Information] Format: AC-3
    -[Information] FormatProfile: 
    -[Information] FormatSettingsSBR: 
    -[Information] FormatSettingsPS: 
    -[Information] SamplingRate: 48000
    -[Information] SamplingRateString: 48.0 kHz
    -[Information] Channels: 2
    -[Information] ChannelsString: 2 channels
    -[Information] ChannelPositionsString2: 2/0/0
    -[Information] BitRateMode: CBR
    -[Information] Delay: 0
    -[Information] Title: tes - [0] German Delay 0ms
    -[Information] Language: 
    -[Information] LanguageString: 
    -[Information] Default: 
    -[Information] DefaultString: 
    -[Information] Forced: 
    -[Information] ForcedString: 
    -[Information] [2/15/2017 1:03:48 AM] The language information is not available for this track. The default MeGUI language has been selected.
    ---[Information] Audio
    --[Information] [2/15/2017 1:03:48 AM] Postprocessing
    -[Information] [2/15/2017 1:03:48 AM] Successfully deleted C:\DownloadJD\test\tes.mkv-muxed_01.avi
    -[Information] [2/15/2017 1:03:48 AM] Successfully deleted C:\DownloadJD\test\tes - [0] German Delay 0ms.ac3
    -[Information] [2/15/2017 1:03:48 AM] Successfully deleted C:\DownloadJD\test\tes.mkv-muxed_0.mux
    ---[Information] [2/15/2017 1:03:48 AM] Deleting intermediate files
    --[Information] [2/15/2017 1:03:48 AM] Job completed
    --[Warning] [2/15/2017 1:03:35 AM] The output file will be splitted every 2GB. If this is not intended select the device type "PC" - but this will reduce compatibility for hardware players.

    was dass soll wieder ..

  2. #2
    Erklär-Bär Avatar von LigH
    Registriert seit
    19. April 2003
    Ort
    OPAL-Invalidengebiet Altmark
    Alter
    42
    Beiträge
    42.719

    Standard AW: MeGUI Zieldatei zu klein

    Dein Problem dürfte hier die "Sättigung" sein: Du willst, dass deine Xvid-AVI z.B. etwa 1,5 GB groß wird, aber selbst mit den "bestmöglichen vernünftigen" Kompressionsparametern (im 1. Durchgang wird Quantisierungsfaktor 2 verwendet) braucht Xvid für das Ergebnis bloß etwa 1 GB für den Videostream. Noch größer muss es gar nicht werden.

    Zitat Zitat von reencoder17 Beitrag anzeigen
    --[Warning] [2/15/2017 1:03:35 AM] The output file will be splitted every 2GB. If this is not intended select the device type "PC" - but this will reduce compatibility for hardware players.

    was dass soll wieder ..
    Nur für den Fall, du wolltest eine AVI-Datei erzeugen, die größer als 2 GB werden soll: Auf dem PC ist das kein Problem, OpenDML-AVI-Dateien dürfen riesengroß werden (zumindest auf NTFS-Partitionen). Aber viele Player aus dem Elektronikmarkt können mit OpenDML-AVIs nicht umgehen, die verstehen nur herkömmliche AVIs (nach Spezifikationen, die noch vor Windows 95 geschrieben wurden), und die dürfen nicht größer als 2 GB werden.

    Auf gute Zusammenarbeit:

    REGELN befolgen | SUCHE benutzen | FAQ lesen | STICKIES beachten




  3. #3
    Eroberer
    Registriert seit
    18. February 2014
    Beiträge
    60

    Standard AW: MeGUI Zieldatei zu klein

    Zitat Zitat von LigH Beitrag anzeigen
    Dein Problem dürfte hier die "Sättigung" sein: Du willst, dass deine Xvid-AVI z.B. etwa 1,5 GB groß wird, aber selbst mit den "bestmöglichen vernünftigen" Kompressionsparametern (im 1. Durchgang wird Quantisierungsfaktor 2 verwendet) braucht Xvid für das Ergebnis bloß etwa 1 GB für den Videostream. Noch größer muss es gar nicht werden.
    Nur für den Fall, du wolltest eine AVI-Datei erzeugen, die größer als 2 GB werden soll: Auf dem PC ist das kein Problem, OpenDML-AVI-Dateien dürfen riesengroß werden (zumindest auf NTFS-Partitionen). Aber viele Player aus dem Elektronikmarkt können mit OpenDML-AVIs nicht umgehen, die verstehen nur herkömmliche AVIs (nach Spezifikationen, die noch vor Windows 95 geschrieben wurden), und die dürfen nicht größer als 2 GB werden.
    Nichts desto trotz sollt er doch machen was ich will vor allem hat mein Kollege es auch gemacht mit MeGUI, extra zum testen und auch das erreicht was er wollte mit den gleichen Setting. Ich hab jetzt echt schon viele Encodes gemacht aber so was hatte ich noch nie. Wieso genau jetzt wo ich MeGUI neu auf den Rechner gemacht habe , ist doch komisch oder ...

    EDIT: hier ist definitiv was faul. Hab nun ein kompletten neuen Encode gestartet welchen ich schon vor Wochen gemacht und habe und der das Ziel der Settings erreicht hat! und nun wieder das selbe Problem, viel zu klein geworden.

    --[Warning] [2/15/2017 1:03:35 AM] The output file will be splitted every 2GB. If this is not intended select the device type "PC" - but this will reduce compatibility for hardware players.

    Und wieso kommt diese Warnung bei einem Encode der so oder so viel zu klein wurde. Ich kenne die Meldung schon aber dies trifft ja hier gar nicht zu. Wenn ich über 2 GB gehe dann stell ich auf PC um.
    Geändert von reencoder17 (15. February 2017 um 12:46 Uhr)

  4. #4
    Erklär-Bär Avatar von LigH
    Registriert seit
    19. April 2003
    Ort
    OPAL-Invalidengebiet Altmark
    Alter
    42
    Beiträge
    42.719

    Standard AW: MeGUI Zieldatei zu klein

    Eine Warnung ist kein Grund für Panik, sondern ein Anlass zum Nachdenken.

    Der Rest ... mal abwarten, ob andere noch Ideen haben.

    Auf gute Zusammenarbeit:

    REGELN befolgen | SUCHE benutzen | FAQ lesen | STICKIES beachten




  5. #5
    . Avatar von Selur
    Registriert seit
    19. April 2003
    Ort
    underground
    Beiträge
    24.840

    Standard AW: MeGUI Zieldatei zu klein

    Code:
    "C:\Users\Administrator\Desktop\MeGUI x86\tools\xvid_encraw\xvid_encraw.exe" -i "C:\DownloadJD\test\tes.mkv.avs" -pass1 "C:\DownloadJD\test\tes.mkv.stats" -bitrate 1550 -max_key_interval 250 -turbo -vhqmode 4 -bvhq -qtype 1 -nopacked -masking 1 -threads 8 -par 1 
    ...
    "C:\Users\Administrator\Desktop\MeGUI x86\tools\xvid_encraw\xvid_encraw.exe" -i "C:\DownloadJD\test\tes.mkv.avs" -o "C:\DownloadJD\test\tes.mkv.m4v" -pass2 "C:\DownloadJD\test\tes.mkv.stats" -bitrate 1696 -max_key_interval 250 -turbo -vhqmode 4 -bvhq -nopacked -masking 1 -notrellis -threads 8 -par 1
    -> Overflow&Underflow treatment anpassen (z.B. auf 10%) und qmin = 1, qmax = 51.
    Immer noch lesenswert (auch wenn MeGui mittlerweile leicht anders aussieht): Wissenswertes rund um MeGui / Xvid
    Hybrid hier im Board, Homepage (www.selur.de), Forum

  6. #6
    Eroberer
    Registriert seit
    18. February 2014
    Beiträge
    60

    Standard AW: MeGUI Zieldatei zu klein

    Quantizer erhört also von 2 auf 1 und jetzt passt es endlich!

  7. #7
    Erklär-Bär Avatar von LigH
    Registriert seit
    19. April 2003
    Ort
    OPAL-Invalidengebiet Altmark
    Alter
    42
    Beiträge
    42.719

    Standard AW: MeGUI Zieldatei zu klein

    Das bedeutet allerdings auch, dass die Datei größer ist, als es für optimale Qualität unbedingt nötig wäre. Feste Quantisierung 2 sollte normalerweise ausreichen, um kaum einen Unterschied zum Original wahrnehmen zu können.

    Aber wenn's glücklich macht ...

    Auf gute Zusammenarbeit:

    REGELN befolgen | SUCHE benutzen | FAQ lesen | STICKIES beachten




Aktive Benutzer

Aktive Benutzer

Aktive Benutzer in diesem Thema: 1 (Registrierte Benutzer: 0, Gäste: 1)

Ähnliche Themen

  1. Fragen zu MeGUI und MeGUI-Wiki
    Von Henrik im Forum MPEG-4-Encoding-Tools
    Antworten: 84
    Letzter Beitrag: 5. January 2015, 17:24
  2. Fragen zu MeGui / Umstieg Staxrip->MeGui
    Von Werniman im Forum MPEG-4-Encoding-Tools
    Antworten: 0
    Letzter Beitrag: 21. January 2013, 12:21
  3. zieldatei ist nur 700 mb gross
    Von doom9.Catrippchen im Forum MPEG-2 Encoding-Tools
    Antworten: 14
    Letzter Beitrag: 19. January 2005, 14:45
  4. Zeitproblem: Zieldatei kürzer als Ausgangsdatei.
    Von Pacemaker im Forum Video-Bearbeitung & Frameserving
    Antworten: 4
    Letzter Beitrag: 28. March 2004, 14:43
  5. Größe der Zieldatei
    Von CrY im Forum DVD2SVCD und allgemeine (S)VCD
    Antworten: 8
    Letzter Beitrag: 25. January 2004, 13:44

Berechtigungen

  • Neue Themen erstellen: Nein
  • Themen beantworten: Nein
  • Anhänge hochladen: Nein
  • Beiträge bearbeiten: Nein
  •