Ergebnis 1 bis 2 von 2

Thema: Bekomme ich das Video unter 1 MB?

  1. #1
    Walk the Line Avatar von _Laui_
    Registriert seit
    24. June 2009
    Beiträge
    177

    Standard Bekomme ich das Video unter 2 MB?

    Ich habe hier ein Video ~ 5,6 MB Groß. Bekomme ich das unter 2 MB? und es kann ruhig Qualitätsverlust haben, 320x240px soll bleiben, Audiospur kann auch noch verändert werden. Was kann man machen. h264 soll es ruhig bleiben. zur Verfügung Avidemux, FFmpeg, Handbrake
    Code:
    eneral
    Complete name                            : video.mp4
    Format                                   : MPEG-4
    Format profile                           : Base Media
    Codec ID                                 : isom (isom/iso2/avc1/mp41)
    File size                                : 5.65 MiB
    Duration                                 : 1mn 11s
    Overall bit rate                         : 667 Kbps
    Encoded date                             : UTC 1904-01-01 00:00:00
    Tagged date                              : UTC 1904-01-01 00:00:00
    Writing application                      : Lavf57.25.100
    
    Video
    ID                                       : 1
    Format                                   : AVC
    Format/Info                              : Advanced Video Codec
    Format profile                           : High@L1.2
    Format settings, CABAC                   : Yes
    Format settings, ReFrames                : 4 frames
    Codec ID                                 : avc1
    Codec ID/Info                            : Advanced Video Coding
    Duration                                 : 1mn 11s
    Bit rate                                 : 581 Kbps
    Width                                    : 320 pixels
    Height                                   : 240 pixels
    Display aspect ratio                     : 4:3
    Frame rate mode                          : Variable
    Frame rate                               : 10.351 fps
    Minimum frame rate                       : 4.215 fps
    Maximum frame rate                       : 12.646 fps
    Original frame rate                      : 12.646 fps
    Color space                              : YUV
    Chroma subsampling                       : 4:2:0
    Bit depth                                : 8 bits
    Scan type                                : Progressive
    Bits/(Pixel*Frame)                       : 0.731
    Stream size                              : 4.92 MiB (87%)
    Writing library                          : x264 core 148 r2643 5c65704
    Encoding settings                        : cabac=1 / ref=3 / deblock=1:0:0 / analyse=0x3:0x133 / me=hex / subme=7 / psy=1 / psy_rd=1,00:0,00 / mixed_ref=1 / me_range=16 / chroma_me=1 / trellis=1 / 8x8dct=1 / cqm=0 / deadzone=21,11 / fast_pskip=1 / chroma_qp_offset=-2 / threads=3 / lookahead_threads=1 / sliced_threads=0 / nr=0 / decimate=1 / interlaced=0 / bluray_compat=0 / constrained_intra=0 / bframes=3 / b_pyramid=2 / b_adapt=1 / b_bias=0 / direct=1 / weightb=1 / open_gop=0 / weightp=2 / keyint=250 / keyint_min=25 / scenecut=40 / intra_refresh=0 / rc_lookahead=40 / rc=crf / mbtree=1 / crf=20,0 / qcomp=0,60 / qpmin=10 / qpmax=51 / qpstep=4 / ip_ratio=1,40 / aq=1:1,00
    Encoded date                             : UTC 1904-01-01 00:00:00
    Tagged date                              : UTC 1904-01-01 00:00:00
    
    Audio
    ID                                       : 2
    Format                                   : MPEG Audio
    Format version                           : Version 1
    Format profile                           : Layer 3
    Codec ID                                 : 6B
    Duration                                 : 1mn 11s
    Bit rate mode                            : Constant
    Bit rate                                 : 80.0 Kbps
    Channel(s)                               : 2 channels
    Sampling rate                            : 44.1 KHz
    Compression mode                         : Lossy
    Stream size                              : 694 KiB (12%)
    Language                                 : unk
    Default                                  : Yes
    Alternate group                          : 1
    Encoded date                             : UTC 1904-01-01 00:00:00
    Tagged date                              : UTC 1904-01-01 00:00:00
    Edit ok Thread war unnötig, habe in Handbrake folgendes eingestellt und das Video ist jetzt 1,5 MB und es reicht völlig für meine Ansprüche

    Klicken Sie auf die Grafik für eine größere Ansicht 

Name:	2017-02-14-205348_1366x559_scrot.png 
Hits:	35 
Größe:	113,3 KB 
ID:	99292
    Geändert von _Laui_ (14. February 2017 um 21:56 Uhr)

  2. #2
    Haudegen Avatar von Propaganda
    Registriert seit
    12. January 2011
    Alter
    49
    Beiträge
    564

    Standard AW: Bekomme ich das Video unter 1 MB?

    Naja geht sogar noch kleiner. Aber egal.

    Ich frage mich wozu?

Aktive Benutzer

Aktive Benutzer

Aktive Benutzer in diesem Thema: 1 (Registrierte Benutzer: 0, Gäste: 1)

Ähnliche Themen

  1. Bekomme Audio und Video nicht synchron
    Von Nel-son im Forum AviSynth
    Antworten: 1
    Letzter Beitrag: 14. August 2015, 16:45
  2. Antworten: 12
    Letzter Beitrag: 25. November 2005, 20:23
  3. [Problem] - Bekomme kein Video vollständig gecaptured
    Von timsen im Forum Analoges Video-Capturing
    Antworten: 2
    Letzter Beitrag: 20. April 2004, 03:11
  4. Video Grabber USB - Bekomme kein sehenwertes Ergebnis
    Von LOWASCHNUCKS im Forum Analoges Video-Capturing
    Antworten: 21
    Letzter Beitrag: 11. January 2004, 09:25
  5. Videos im Video => Wie bekomme ich es hin?
    Von pralle im Forum Video-Bearbeitung & Frameserving
    Antworten: 5
    Letzter Beitrag: 10. December 2003, 11:23

Berechtigungen

  • Neue Themen erstellen: Nein
  • Themen beantworten: Nein
  • Anhänge hochladen: Nein
  • Beiträge bearbeiten: Nein
  •