Seite 1 von 2 12 LetzteLetzte
Ergebnis 1 bis 10 von 12

Thema: Kann WMP von Haus aus MPEG4-Dateien abspielen?

  1. #1
    Mitglied
    Registriert seit
    21. September 2016
    Beiträge
    40

    Icon5 Kann WMP von Haus aus MPEG4-Dateien abspielen?

    hi, kann der Windows-Media-Player(Win10) von Haus(ohne, dass man den Codec ins Betriebssystem installiert) aus MPEG4-Dateien abspielen?

    lieben Dank

    Julia

  2. #2
    Kaiser
    Registriert seit
    6. July 2009
    Beiträge
    1.294

    Standard AW: Kann WMP von Haus aus MPEG4-Dateien abspielen?

    Unter dem Namen "MPEG4" gibt es eine ganze Reihe von Standards. Die üblichen Dateien mit .H264-Video und AAC-Audio im ISO base media file format-Container ("mp4") sollte Windows 10 abspielen können.

    https://support.microsoft.com/de-de/kb/316992

  3. #3
    Mitglied
    Registriert seit
    21. September 2016
    Beiträge
    40

    Standard AW: Kann WMP von Haus aus MPEG4-Dateien abspielen?

    ich encodiere mit MeGUI nach x264, jedoch gibt der WMP(Win10) nur das Audio wieder. Egal ob ich das Video als MP4 oder MPEG encodiere. VLC oder MPC-HC spielen das Video aber ganz normal ab. Kann ich das Video irgenwie WMP-Kompatibel encodieren ohne, dass es riesig wird oder total blöd aussieht?

  4. #4
    Kaiser
    Registriert seit
    6. July 2009
    Beiträge
    1.294

    Standard AW: Kann WMP von Haus aus MPEG4-Dateien abspielen?

    Zeig mal den MediaInfo-Auszug der Datei.

  5. #5
    DooM Avatar von De-M-oN
    Registriert seit
    14. September 2010
    Alter
    31
    Beiträge
    95

    Standard AW: Kann WMP von Haus aus MPEG4-Dateien abspielen?

    FFDShow und/oder Haali installieren, dann sollte es gehen.

    Die großen Entwickler haben scheinbar alle noch nichts von High 4:4:4 predictive gehört, nichts von höheren Chroma Subsamplings als 4:2:0 gehört, geschweige denn 10bit Encoding. Ich versteh echt nicht, warum die großen Timeline Softwares beispielsweise noch immer keine MKV Container öffnen können, kein 10bit de- und encodieren können, und all das was ich aufgezählt habe. Noch dazu fast keine Einstellungen für die Codecs.
    Ich versteh nicht, wie man immer noch solche beta h.264 decoder haben kann, wo der Standard schon weit mehr als 10 Jahre existiert. Warum einfach nur??

    ___

    Und in deinem Falle killt das 10bit Encoding dein WMP...

  6. #6
    Erklär-Bär Avatar von LigH
    Registriert seit
    19. April 2003
    Ort
    OPAL-Invalidengebiet Altmark
    Alter
    42
    Beiträge
    42.503

    Standard AW: Kann WMP von Haus aus MPEG4-Dateien abspielen?

    Zitat Zitat von De-M-oN Beitrag anzeigen
    FFDShow und/oder Haali installieren, dann sollte es gehen.
    Ziemlich veraltet. Heutzutage benutzt man da die "LAV Filters".


    Zitat Zitat von De-M-oN Beitrag anzeigen
    Ich versteh echt nicht, warum die großen {nix können}.
    Weil Open-Source-Autoren sie dafür nicht bezahlen.

    Im Gegenteil, ich hab mich schon mal gewundert, warum mein Autoradio nicht damit beworben wird, Ogg Vorbis zu unterstützen. Ist nicht dokumentiert. Ob dafür jemand bezahlt hat, das nicht zu erwähnen?!

    Auf gute Zusammenarbeit:

    REGELN befolgen | SUCHE benutzen | FAQ lesen | STICKIES beachten




  7. #7
    Simplifizissimus Avatar von bergh
    Registriert seit
    10. May 2003
    Ort
    Am Kamener Kreuz
    Alter
    57
    Beiträge
    6.175

    Standard AW: Kann WMP von Haus aus MPEG4-Dateien abspielen?

    Verschwörungstheoretiker aller Länder vereinigt Euch
    Wahrscheinlich hast Du aber Recht !
    Gruss BergH

  8. #8
    Mitglied
    Registriert seit
    21. September 2016
    Beiträge
    40

    Standard AW: Kann WMP von Haus aus MPEG4-Dateien abspielen?

    Zitat Zitat von sneaker2 Beitrag anzeigen
    Zeig mal den MediaInfo-Auszug der Datei.
    Wie erstelle ich einen solchen?

    Wie müsste ich die Datei encodieren mit MeGUI, damit der WMP Win10 damit von Haus aus umgehen kann?

  9. #9
    Erklär-Bär Avatar von LigH
    Registriert seit
    19. April 2003
    Ort
    OPAL-Invalidengebiet Altmark
    Alter
    42
    Beiträge
    42.503

    Standard AW: Kann WMP von Haus aus MPEG4-Dateien abspielen?

    Man besorge sich zunächst MediaInfo; wenn man mit Kommandozeilentools klarkommt, reicht die CLI-Version (die gibt auch statisch compiliert hier im News-Bereich von LoRd_MuldeR), ansonsten halt die GUI-Version (da aber beim Installieren aufpassen, dass einem der Installer nicht zusätzlich noch unerwünschten Müll mit draufpackt; eventuell nur aus einem 7z-Archiv entpacken, "without installer").

    Mit der CLI-Version kann man einfach einen ausführlichen Report in einer "Eingabeaufforderung" erzeugen:

    Code:
    MediaInfo -f clip.mp4 > clip.mp4.txt
    Parameter "-f" erzeugt den Bericht mit ausführlichem Inhalt. Statt "clip.mp4" entsprechend einen existierenden Dateinamen verwenden.

    Bei der GUI-Version muss man auf das Ausgabeformat "Text" umschalten und im Debug-Menü die erweiterte Ausgabe aktivieren.

    Das Ergebnis dann hier in einem CODE-Block einfügen oder die Textdatei anhängen oder in einem pastebin verlinken.
    _

    Damit der WMP es abspielen kann, in den Optionen der MeGUI nicht die Variante des x264-Encoders mit 10 bit Farbkomponenten-Auflösung auswählen, nur die Variante mit 8 bit Genauigkeit verwenden.

    Es wäre dennoch besser, die LAV Filters als DirectShow-Decoder zu verwenden. Oder gleich einen besseren Player (wie schon erwähnt, zählt der WMP zu denen, die bei uns kaum jemand empfehlen würde, der konnte ja in bestimmten Versionen? noch nicht mal zwischen mehreren Tonspuren wählen und spielt alle gleichzeitig ab).

    Auf gute Zusammenarbeit:

    REGELN befolgen | SUCHE benutzen | FAQ lesen | STICKIES beachten




  10. #10
    Mitglied
    Registriert seit
    21. September 2016
    Beiträge
    40

    Standard AW: Kann WMP von Haus aus MPEG4-Dateien abspielen?

    Als Non-10bit (Häkchen herausgenommen) - ist dann wohl 8bit - klappt es. Und sieht keinen deut schlechter aus.

    Code:
    General
    Count                                    : 322
    Count of stream of this kind             : 1
    Kind of stream                           : General
    Kind of stream                           : General
    Stream identifier                        : 0
    Unique ID                                : 238895935381042772214372850076350270629
    Unique ID                                : 238895935381042772214372850076350270629 (0xB3B9AEFD69B77A29ADCDF913FD6DCCA5)
    Count of video streams                   : 1
    Count of audio streams                   : 1
    Video_Format_List                        : AVC
    Video_Format_WithHint_List               : AVC
    Codecs Video                             : AVC
    Video_Language_List                      : English
    Audio_Format_List                        : MPEG Audio
    Audio_Format_WithHint_List               : MPEG Audio (MP3)
    Audio codecs                             : MPEG-1 Audio layer 3
    Audio_Language_List                      : English
    Complete name                            : UMaus.mkv
    File name                                : UMaus
    File extension                           : mkv
    Format                                   : Matroska
    Format                                   : Matroska
    Format/Url                               : https://packs.matroska.org/
    Format/Extensions usually used           : mkv mk3d mka mks
    Commercial name                          : Matroska
    Format version                           : Version 4 / Version 2
    Codec                                    : Matroska
    Codec                                    : Matroska
    Codec/Url                                : https://packs.matroska.org/
    Codec/Extensions usually used            : mkv mk3d mka mks
    File size                                : 43736808
    File size                                : 41.7 MiB
    File size                                : 42 MiB
    File size                                : 42 MiB
    File size                                : 41.7 MiB
    File size                                : 41.71 MiB
    Duration                                 : 233430
    Duration                                 : 3 min 53 s
    Duration                                 : 3 min 53 s 430 ms
    Duration                                 : 3 min 53 s
    Duration                                 : 00:03:53.430
    Duration                                 : 00:03:52:10
    Duration                                 : 00:03:53.430 (00:03:52:10)
    Overall bit rate mode                    : VBR
    Overall bit rate mode                    : Variable
    Overall bit rate                         : 1498927
    Overall bit rate                         : 1 499 kb/s
    Frame rate                               : 61.000
    Frame rate                               : 61.000 FPS
    Frame count                              : 14162
    Stream size                              : 114464
    Stream size                              : 112 KiB (0%)
    Stream size                              : 112 KiB
    Stream size                              : 112 KiB
    Stream size                              : 112 KiB
    Stream size                              : 111.8 KiB
    Stream size                              : 112 KiB (0%)
    Proportion of this stream                : 0.00262
    Encoded date                             : UTC 2016-09-30 10:52:30
    File creation date                       : UTC 2016-09-30 14:03:51.370
    File creation date (local)               : 2016-09-30 16:03:51.370
    File last modification date              : UTC 2016-09-30 10:52:30.689
    File last modification date (local)      : 2016-09-30 12:52:30.689
    Writing application                      : mkvmerge v9.4.2 ('So High') 64bit
    Writing application                      : mkvmerge v9.4.2 ('So High') 64bit
    Writing library                          : libebml v1.3.4 + libmatroska v1.4.5
    Writing library                          : libebml v1.3.4 + libmatroska v1.4.5
    
    Video
    Count                                    : 341
    Count of stream of this kind             : 1
    Kind of stream                           : Video
    Kind of stream                           : Video
    Stream identifier                        : 0
    StreamOrder                              : 0
    ID                                       : 1
    ID                                       : 1
    Unique ID                                : 7881075731459300026
    Format                                   : AVC
    Format/Info                              : Advanced Video Codec
    Format/Url                               : https://developers.videolan.org/x264.html
    Commercial name                          : AVC
    Format profile                           : High 4:2:2@L5.1
    Format settings                          : CABAC / 16 Ref Frames
    Format settings, CABAC                   : Yes
    Format settings, CABAC                   : Yes
    Format settings, ReFrames                : 16
    Format settings, ReFrames                : 16 frames
    Internet media type                      : video/H264
    Codec ID                                 : V_MPEG4/ISO/AVC
    Codec ID/Url                             : https://ffdshow-tryout.sourceforge.net/
    Codec                                    : V_MPEG4/ISO/AVC
    Codec                                    : AVC
    Codec/Family                             : AVC
    Codec/Info                               : Advanced Video Codec
    Codec/Url                                : https://ffdshow-tryout.sourceforge.net/
    Codec profile                            : High 4:2:2@L5.1
    Codec settings                           : CABAC / 16 Ref Frames
    Codec settings, CABAC                    : Yes
    Codec_Settings_RefFrames                 : 16
    Duration                                 : 232164.000000
    Duration                                 : 3 min 52 s
    Duration                                 : 3 min 52 s 164 ms
    Duration                                 : 3 min 52 s
    Duration                                 : 00:03:52.164
    Duration                                 : 00:03:52:10
    Duration                                 : 00:03:52.164 (00:03:52:10)
    Bit rate                                 : 1311246
    Bit rate                                 : 1 311 kb/s
    Width                                    : 1920
    Width                                    : 1 920 pixels
    Height                                   : 1080
    Height                                   : 1 080 pixels
    Stored_Height                            : 1088
    Sampled_Width                            : 1920
    Sampled_Height                           : 1080
    Pixel aspect ratio                       : 1.000
    Display aspect ratio                     : 1.778
    Display aspect ratio                     : 16:9
    Frame rate mode                          : CFR
    Frame rate mode                          : Constant
    Frame rate                               : 61.000
    Frame rate                               : 61.000 FPS
    Frame count                              : 14162
    Resolution                               : 10
    Resolution                               : 10 bits
    Colorimetry                              : 4:2:2
    Color space                              : YUV
    Chroma subsampling                       : 4:2:2
    Chroma subsampling                       : 4:2:2
    Bit depth                                : 10
    Bit depth                                : 10 bits
    Scan type                                : Progressive
    Scan type                                : Progressive
    Interlacement                            : PPF
    Interlacement                            : Progressive
    Bits/(Pixel*Frame)                       : 0.010
    Delay                                    : 0
    Delay                                    : 00:00:00.000
    Delay, origin                            : Container
    Delay, origin                            : Container
    Stream size                              : 38053039
    Stream size                              : 36.3 MiB (87%)
    Stream size                              : 36 MiB
    Stream size                              : 36 MiB
    Stream size                              : 36.3 MiB
    Stream size                              : 36.29 MiB
    Stream size                              : 36.3 MiB (87%)
    Proportion of this stream                : 0.87005
    Writing library                          : x264 - core 148 r2638 7599210
    Writing library                          : x264 core 148 r2638 7599210
    Encoded_Library_Name                     : x264
    Encoded_Library_Version                  : core 148 r2638 7599210
    Encoding settings                        : cabac=1 / ref=16 / deblock=1:1:1 / analyse=0x3:0x133 / me=tesa / subme=11 / psy=1 / psy_rd=0.40:0.00 / mixed_ref=1 / me_range=24 / chroma_me=1 / trellis=2 / 8x8dct=1 / cqm=0 / deadzone=21,11 / fast_pskip=0 / chroma_qp_offset=-2 / threads=12 / lookahead_threads=1 / sliced_threads=0 / nr=0 / decimate=1 / interlaced=0 / bluray_compat=0 / constrained_intra=0 / bframes=3 / b_pyramid=2 / b_adapt=2 / b_bias=0 / direct=3 / weightb=1 / open_gop=0 / weightp=2 / keyint=610 / keyint_min=61 / scenecut=40 / intra_refresh=0 / rc_lookahead=60 / rc=crf / mbtree=1 / crf=21.0 / qcomp=0.60 / qpmin=0 / qpmax=81 / qpstep=4 / ip_ratio=1.40 / aq=1:0.60
    Default                                  : Yes
    Default                                  : Yes
    Forced                                   : No
    Forced                                   : No
    
    Audio
    Count                                    : 279
    Count of stream of this kind             : 1
    Kind of stream                           : Audio
    Kind of stream                           : Audio
    Stream identifier                        : 0
    StreamOrder                              : 1
    ID                                       : 2
    ID                                       : 2
    Unique ID                                : 14352125215415461052
    Format                                   : MPEG Audio
    Commercial name                          : MPEG Audio
    Format version                           : Version 1
    Format profile                           : Layer 3
    Format settings                          : Joint stereo / MS Stereo
    Mode                                     : Joint stereo
    Mode extension                           : MS Stereo
    Internet media type                      : audio/mpeg
    Codec ID                                 : A_MPEG/L3
    Codec ID/Hint                            : MP3
    Codec ID/Url                             : https://www.iis.fraunhofer.de/amm/index.html
    Codec                                    : MPA1L3
    Codec                                    : MPEG-1 Audio layer 3
    Codec/Family                             : MPEG-A
    Codec/Info                               : MPEG1 or 2 Audio Layer 3
    Codec/Url                                : https://www.iis.fraunhofer.de/amm/index.html
    Codec profile                            : Joint stereo
    Duration                                 : 233430.000000
    Duration                                 : 3 min 53 s
    Duration                                 : 3 min 53 s 430 ms
    Duration                                 : 3 min 53 s
    Duration                                 : 00:03:53.430
    Duration                                 : 00:03:55:05
    Duration                                 : 00:03:53.430 (00:03:55:05)
    Bit rate mode                            : VBR
    Bit rate mode                            : Variable
    Bit rate                                 : 190889
    Bit rate                                 : 191 kb/s
    Channel(s)                               : 2
    Channel(s)                               : 2 channels
    Samples per frame                        : 1152
    Sampling rate                            : 44100
    Sampling rate                            : 44.1 kHz
    Samples count                            : 10293120
    Frame rate                               : 38.281
    Frame rate                               : 38.281 FPS (1152 spf)
    Frame count                              : 8935
    Compression mode                         : Lossy
    Compression mode                         : Lossy
    Delay                                    : 0
    Delay                                    : 00:00:00.000
    Delay, origin                            : Container
    Delay, origin                            : Container
    Delay relative to video                  : 0
    Delay relative to video                  : 00:00:00.000
    Video0 delay                             : 0
    Video0 delay                             : 00:00:00.000
    Stream size                              : 5569305
    Stream size                              : 5.31 MiB (13%)
    Stream size                              : 5 MiB
    Stream size                              : 5.3 MiB
    Stream size                              : 5.31 MiB
    Stream size                              : 5.311 MiB
    Stream size                              : 5.31 MiB (13%)
    Proportion of this stream                : 0.12734
    Writing library                          : LAME3.98 º
    Writing library                          : LAME3.98 º
    Default                                  : Yes
    Default                                  : Yes
    Forced                                   : No
    Forced                                   : No

Seite 1 von 2 12 LetzteLetzte

Aktive Benutzer

Aktive Benutzer

Aktive Benutzer in diesem Thema: 1 (Registrierte Benutzer: 0, Gäste: 1)

Ähnliche Themen

  1. Antworten: 4
    Letzter Beitrag: 5. July 2007, 20:19
  2. Probleme mit AVI Dateien bzw. Mpeg4 und Nero!
    Von Steffi60 im Forum Newbies
    Antworten: 1
    Letzter Beitrag: 14. February 2007, 18:54
  3. Kann keine nero mpeg4 trailers abspielen...
    Von betaman im Forum MPEG-4-Encoding
    Antworten: 7
    Letzter Beitrag: 13. September 2005, 19:10
  4. Antworten: 12
    Letzter Beitrag: 30. January 2005, 02:23
  5. Vob-Dateien umwandeln in mpeg4
    Von Matthias im Forum Video-Bearbeitung & Frameserving
    Antworten: 8
    Letzter Beitrag: 30. June 2004, 21:58

Berechtigungen

  • Neue Themen erstellen: Nein
  • Themen beantworten: Nein
  • Anhänge hochladen: Nein
  • Beiträge bearbeiten: Nein
  •