Hi, ist es möglich mit ffmpeg in der Kommandozeile eine MP4 oder MKV mit Inhalt h.264/aac in eine Film-DVD zu wandeln? Entweder in eine DVD-Ordnerstrukur mit Ordner VIDEO_TS oder in eine ISO? Wie muss da die Kommandozeile lauten? Ein einfaches Beispiel reicht mir. Dieses Video solls vorallendingen sein:
Code:
General
Complete name                            : /film.mp4
Format                                   : MPEG-4
Format profile                           : Base Media / Version 2
Codec ID                                 : mp42 (isom/mp42)
File size                                : 2.60 GiB
Duration                                 : 1h 51mn
Overall bit rate mode                    : Variable
Overall bit rate                         : 3 337 Kbps
Encoded date                             : UTC 2016-08-23 10:29:28
Tagged date                              : UTC 2016-08-23 10:29:28

Video
ID                                       : 1
Format                                   : AVC
Format/Info                              : Advanced Video Codec
Format profile                           : Main@L3.1
Format settings, CABAC                   : Yes
Format settings, ReFrames                : 5 frames
Format settings, GOP                     : M=2, N=50
Codec ID                                 : avc1
Codec ID/Info                            : Advanced Video Coding
Duration                                 : 1h 51mn
Bit rate mode                            : Constant
Bit rate                                 : 3 199 Kbps
Maximum bit rate                         : 5 244 Kbps
Width                                    : 1 280 pixels
Height                                   : 720 pixels
Display aspect ratio                     : 16:9
Frame rate mode                          : Constant
Frame rate                               : 25.000 fps
Color space                              : YUV
Chroma subsampling                       : 4:2:0
Bit depth                                : 8 bits
Scan type                                : Progressive
Bits/(Pixel*Frame)                       : 0.139
Stream size                              : 2.50 GiB (96%)
Language                                 : German
Encoded date                             : UTC 2016-08-23 10:29:28
Tagged date                              : UTC 2016-08-23 10:30:48

Audio
ID                                       : 2
Format                                   : AAC
Format/Info                              : Advanced Audio Codec
Format profile                           : LC
Codec ID                                 : 40
Duration                                 : 1h 51mn
Bit rate mode                            : Variable
Bit rate                                 : 128 Kbps
Maximum bit rate                         : 136 Kbps
Channel(s)                               : 2 channels
Channel positions                        : Front: L R
Sampling rate                            : 48.0 KHz
Frame rate                               : 46.875 fps (1024 spf)
Compression mode                         : Lossy
Stream size                              : 102 MiB (4%)
Language                                 : German
Encoded date                             : UTC 2016-08-23 10:29:28
Tagged date                              : UTC 2016-08-23 10:30:48