Ergebnis 1 bis 7 von 7

Thema: Wie m4v Video (Xvid) + ac3 Audio mit ffmpeg richtig multiplexen?

  1. #1
    . Avatar von Selur
    Registriert seit
    19. April 2003
    Ort
    underground
    Beiträge
    24.750

    Standard Wie m4v Video (Xvid) + ac3 Audio mit ffmpeg richtig multiplexen?

    Ich mache folgendes:
    1. AC3 Audio extrahieren:
    Code:
    mplayer -v -mc 0 -vc dummy -nocorrect-pts -aid 128 dvd://1 -dvd-device "D:\ElephantsDream\VIDEO_TS" -chapter 1-1 -dumpaudio -dumpfile "D:\Encoding Output\audio.ac3"
    2. Xvid 1stPass:
    Code:
    mencoder -dvd-device "D:\ElephantsDream\VIDEO_TS" dvd://1 -chapter 1-1 -noskip -vc mpeg12 -vf scale,format=i420 -forcedsubsonly -noautosub -nosound -mc 0 -lavdopts threads=8 -fps 25 -aspect 1.7775:1 -ovc xvid -xvidencopts pass=1:bitrate=8776:turbo:profile=unrestricted:me_quality=6:min_iquant=1:max_iquant=31:min_pquant=1:max_pquant=31:min_bquant=1:max_bquant=31:max_key_interval=250:quant_type=h263:max_bframes=2:bquant_ratio=150:bquant_offset=100:bf_threshold=0:vhq=2:bvhq=1:curve_compression_high=0:curve_compression_low=0:overflow_control_strength=10:max_overflow_improvement=10:max_overflow_degradation=10:trellis:noqpel:nogmc:nocartoon:chroma_opt:chroma_me:nointerlacing:keyframe_boost=10:kfthreshold=1:kfreduction=20:par=ext:par_width=16:par_height=11:closed_gop:nopacked:threads=0 -passlogfile "D:\Encoding Output\StatFile.stats" -o NUL
    3. Xvid 2nd Pass:
    Code:
    mencoder -dvd-device "D:\ElephantsDream\VIDEO_TS" dvd://1 -chapter 1-1 -noskip -vc mpeg12 -vf scale,format=i420 -forcedsubsonly -noautosub -nosound -mc 0 -lavdopts threads=8 -fps 25 -aspect 1.7775:1 -ovc xvid -xvidencopts pass=2:bitrate=8776:profile=unrestricted:me_quality=6:min_iquant=1:max_iquant=31:min_pquant=1:max_pquant=31:min_bquant=1:max_bquant=31:max_key_interval=250:quant_type=h263:max_bframes=2:bquant_ratio=150:bquant_offset=100:bf_threshold=0:vhq=2:bvhq=1:curve_compression_high=0:curve_compression_low=0:overflow_control_strength=10:max_overflow_improvement=10:max_overflow_degradation=10:trellis:noqpel:nogmc:nocartoon:chroma_opt:chroma_me:nointerlacing:keyframe_boost=10:kfthreshold=1:kfreduction=20:par=ext:par_width=16:par_height=11:closed_gop:nopacked:threads=0 -passlogfile "D:\Encoding Output\StatFile.stats" -of rawvideo -o "D:\Encoding Output\video.m4v"
    4. Löschen der "D:\Encoding Output\StatFile.stats" Datei

    Jetzt kommt mein Problem.

    5. Audio&Video multiplexen:
    Code:
    ffmpeg -y -i "D:\Encoding Output\video.m4v" -i "D:\Encoding Output\audio.ac3" -vcodec copy -acodec copy -map 0:0 -map 1:0 "D:\Encoding Output\test.avi"
    -> Audio kann nicht abgespielt werden, Dateilänge entspricht der Länge von beiden Dateien zusammen.
    Code:
    ffmpeg -y -i "D:\Encoding Output\video.m4v" -i "D:\Encoding Output\audio.ac3" -vcodec copy -acodec copy "D:\Encoding Output\test.avi"
    -> Audio kann nicht abgespielt werden, Dateilänge entspricht der Länge von beiden Dateien zusammen.

    Da der Audiostream sich alleine ohne Probleme anhören lässt und mediainfo "D:\Encoding Output\audio.ac3" auch keien Probleme zeigt:
    General
    Complete name : D:\Encoding Output\audio.ac3
    Format : AC-3
    Format/Info : Audio Coding 3
    File size : 1.41 MiB
    Duration : 26s 368ms
    Overall bit rate : 448 Kbps

    Audio
    Format : AC-3
    Format/Info : Audio Coding 3
    Mode extension : CM (complete main)
    Duration : 26s 368ms
    Bit rate mode : Constant
    Bit rate : 448 Kbps
    Channel(s) : 6 channels
    Channel positions : Front: L C R, Side: L R, LFE
    Sampling rate : 48.0 KHz
    Bit depth : 16 bits
    Compression mode : Lossy
    Stream size : 1.41 MiB (100%)
    vermute ich nicht, dass es am Audiostream an sich sondern am Multiplexaufruf liegt.


    Hat jemand ne Idee woran es liegt?

    Cu Selur

    Ps.: Hab zum Testen das video.m4v und das audio.ac3 file hochgeladen (ca. 13MB).

    PPs.: scheint so als ob ffmpeg den .ac3 Stream als pcm markiert wenn es den Stream in den .aiv container packt,.. (why?!)
    Hier mal die gemuxte Datei:
    MediaInfo.exe "d:\Encoding Output\test.avi"
    General
    Complete name : d:\Encoding Output\test.avi
    Format : AVI
    Format/Info : Audio Video Interleave
    File size : 13.3 MiB
    Duration : 26s 520ms
    Overall bit rate : 4 192 Kbps
    Writing application : Lavf52.87.1

    Video
    ID : 0
    Format : MPEG-4 Visual
    Format profile : Advanced Simple@L5
    Format settings, BVOP : Yes
    Format settings, QPel : No
    Format settings, GMC : No warppoints
    Format settings, Matrix : Default (H.263)
    Codec ID : FMP4
    Duration : 26s 520ms
    Bit rate : 3 732 Kbps
    Width : 720 pixels
    Height : 576 pixels
    Display aspect ratio : 16:9
    Frame rate : 25.000 fps
    Standard : PAL
    Color space : YUV
    Chroma subsampling : 4:2:0
    Bit depth : 8 bits
    Scan type : Progressive
    Compression mode : Lossy
    Bits/(Pixel*Frame) : 0.360
    Stream size : 11.8 MiB (89%)
    Writing library : XviD 1.2.1 (UTC 2008-12-04)

    Audio
    ID : 1
    Format : AC-3
    Format/Info : Audio Coding 3
    Codec ID : 00001000-0000-0020-8000-00AA00389B71
    Duration : 26s 400ms
    Bit rate : 448 Kbps
    Channel(s) : 6 channels
    Channel positions : Front: L C R, Side: L R, LFE
    Sampling rate : 48.0 KHz
    Bit depth : 16 bits
    Compression mode : Lossy
    Stream size : 1.41 MiB (11%)
    Interleave, duration : 32 ms (0.80 video frame)
    scheint als ob die CodecID falsch ist,.. Grummel,...

    Hab mal im englischen Forum einen Beitrag erstellt (https://forum.doom9.org/showthread.php?t=158428) vielleicht weiß da jemand was genaueres,...
    Geändert von Selur (11. December 2010 um 14:22 Uhr)

  2. #2
    Erklär-Bär Avatar von LigH
    Registriert seit
    19. April 2003
    Ort
    OPAL-Invalidengebiet Altmark
    Alter
    42
    Beiträge
    42.552

    Standard AW: Wie m4v Video (Xvid) + ac3 Audio mit ffmpeg richtig multiplexen?

    Mit dem IRC hast du dich noch nicht so recht angefreundet?

    Auf gute Zusammenarbeit:

    REGELN befolgen | SUCHE benutzen | FAQ lesen | STICKIES beachten




  3. #3
    . Avatar von Selur
    Registriert seit
    19. April 2003
    Ort
    underground
    Beiträge
    24.750

    Standard AW: Wie m4v Video (Xvid) + ac3 Audio mit ffmpeg richtig multiplexen?

    Nope,.. nicht wirklich. :P
    per https://webchat.freenode.net/ mal in den #ffmpeg Channel gegangen, aber wirklich kommunikativ ist da keiner,..
    Geändert von Selur (11. December 2010 um 15:53 Uhr)

  4. #4
    Erklär-Bär Avatar von LigH
    Registriert seit
    19. April 2003
    Ort
    OPAL-Invalidengebiet Altmark
    Alter
    42
    Beiträge
    42.552

    Standard AW: Wie m4v Video (Xvid) + ac3 Audio mit ffmpeg richtig multiplexen?

    Kommt auf die Uhrzeit an (amerikanisch eher als europäisch).

    Auf gute Zusammenarbeit:

    REGELN befolgen | SUCHE benutzen | FAQ lesen | STICKIES beachten




  5. #5
    . Avatar von Selur
    Registriert seit
    19. April 2003
    Ort
    underground
    Beiträge
    24.750

    Standard AW: Wie m4v Video (Xvid) + ac3 Audio mit ffmpeg richtig multiplexen?

    hmm,.. also später noch mal versuchen,..
    -> scheint mit der neusten ffmpeg Verison zu gehen
    Geändert von Selur (12. December 2010 um 10:35 Uhr)

  6. #6
    . Avatar von Selur
    Registriert seit
    19. April 2003
    Ort
    underground
    Beiträge
    24.750

    Standard AW: Wie m4v Video (Xvid) + ac3 Audio mit ffmpeg richtig multiplexen?

    Korrektur: Ist immer noch kaputt :/

  7. #7
    Erklär-Bär Avatar von LigH
    Registriert seit
    19. April 2003
    Ort
    OPAL-Invalidengebiet Altmark
    Alter
    42
    Beiträge
    42.552

    Standard AW: Wie m4v Video (Xvid) + ac3 Audio mit ffmpeg richtig multiplexen?

    #4682
    Fixed in 8750aef3d65c0d52946a9b52eba5f5203280b548

    Auf gute Zusammenarbeit:

    REGELN befolgen | SUCHE benutzen | FAQ lesen | STICKIES beachten




Aktive Benutzer

Aktive Benutzer

Aktive Benutzer in diesem Thema: 1 (Registrierte Benutzer: 0, Gäste: 1)

Ähnliche Themen

  1. Antworten: 24
    Letzter Beitrag: 28. November 2010, 16:48
  2. Wie mit mkvmerge ogg vorbis raw in mkv container multiplexen?
    Von Selur im Forum Alternative A/V-Container und -Formate
    Antworten: 7
    Letzter Beitrag: 3. June 2010, 15:52
  3. ffmpeg: videos aus image-files mit audio spur
    Von zwiebel_sondermann im Forum MPEG-4-Encoding-Tools
    Antworten: 0
    Letzter Beitrag: 26. April 2006, 00:01
  4. AC3 5.1 richtig schneiden, ggf. automatisch wie 16:9?
    Von surroundnewbie im Forum Video-Bearbeitung & Frameserving
    Antworten: 3
    Letzter Beitrag: 5. February 2004, 02:49

Berechtigungen

  • Neue Themen erstellen: Nein
  • Themen beantworten: Nein
  • Anhänge hochladen: Nein
  • Beiträge bearbeiten: Nein
  •