Seite 190 von 190 ErsteErste ... 90140180188189190
Ergebnis 1.891 bis 1.893 von 1893

Thema: StaxRip Encoding-Frontend (Diskussion)

  1. #1891
    Mitglied
    Registriert seit
    10. August 2007
    Beiträge
    45

    Standard AW: StaxRip Encoding-Frontend (Diskussion)

    Was hat es mit diesem Fehler auf sich...




    Error Audio encoding 1 using eac3to 3.31 (1.7.0.0)

    Audio encoding 1 using eac3to 3.31 failed with exit code: 1 (0x1)

    The exit code might be a system error code: STATUS_WAIT_1

    The exit code might be a system error code: Unzulässige Funktion.


    ------------------ Audio encoding 1 using eac3to 3.31 ------------------

    F:\BluRay\Staxrip\Apps\eac3to\eac3to.exe "F:\BluRay\Temp\123_temp\123 ID3 German.dtsma" "F:\BluRay\Temp\123_temp\123 ID3 German_a1.m4a" -quality=0.4 -normalize -progressnumbers

    DTS Master Audio, 5.1 channels, 24 bits, 48kHz
    (core: DTS, 5.1 channels, 1509kbps, 48kHz)
    Decoding with libDcaDec DTS Decoder...
    libDcaDec reported the warning "XLL output not lossless".
    Writing WAV...
    Creating file "F:\BluRay\Temp\123_temp\123 ID3 German_a1.m4a.pass1.wav"...
    libDcaDec output changed from 6 channels, 48kHz to 2 channels, 48kHz.
    Aborted at file position 1048576.



    StaxRip.ErrorAbortException: Audio encoding 1 using eac3to 3.31 failed with exit code: 1 (0x1)

    The exit code might be a system error code: STATUS_WAIT_1

    The exit code might be a system error code: Unzulässige Funktion.


    ------------------ Audio encoding 1 using eac3to 3.31 ------------------

    F:\BluRay\Staxrip\Apps\eac3to\eac3to.exe "F:\BluRay\Temp\123_temp\123 ID3 German.dtsma" "F:\BluRay\Temp\123_temp\123 ID3 German_a1.m4a" -quality=0.4 -normalize -progressnumbers

    DTS Master Audio, 5.1 channels, 24 bits, 48kHz
    (core: DTS, 5.1 channels, 1509kbps, 48kHz)
    Decoding with libDcaDec DTS Decoder...
    libDcaDec reported the warning "XLL output not lossless".
    Writing WAV...
    Creating file "F:\BluRay\Temp\123_temp\123 ID3 German_a1.m4a.pass1.wav"...
    libDcaDec output changed from 6 channels, 48kHz to 2 channels, 48kHz.
    Aborted at file position 1048576.


    bei StaxRip.Proc.Start() in D:\Projekte\VS\VB\StaxRip\General\Proc.vb:Zeile 338.
    bei StaxRip.GUIAudioProfile.Encode() in D:\Projekte\VS\VB\StaxRip\General\AudioProfile.vb:Zeile 665.
    bei StaxRip.GlobalClass._Closure$__._Lambda$__31-0() in D:\Projekte\VS\VB\StaxRip\General\GlobalClass.vb:Zeile 105.
    bei System.Threading.Tasks.Parallel.<>c__DisplayClass4_0.<Invoke>b__0()
    --- Ende der Stapelüberwachung vom vorhergehenden Ort, an dem die Ausnahme ausgelöst wurde ---
    bei System.Runtime.ExceptionServices.ExceptionDispatchInfo.Throw()
    bei StaxRip.GlobalClass.ProcessJob(String jobPath) in D:\Projekte\VS\VB\StaxRip\General\GlobalClass.vb:Zeile 137.

  2. #1892
    Grünschnabel
    Registriert seit
    28. December 2014
    Beiträge
    5

    Standard AW: StaxRip Encoding-Frontend (Diskussion)

    Passierte bei der 3.31 öfters, vorallem bei dtsma und dtshd.
    Versuche es mit der 3.34, dann sollte es funktionieren.
    Ich hatte seitdem keine Probleme mehr.

    eac3to 3.34
    madshi.net/eac3to.zip

  3. #1893
    Grünschnabel
    Registriert seit
    22. May 2018
    Beiträge
    1

    Standard AW: StaxRip Encoding-Frontend (Diskussion)

    Hallo ich bekomm aus irgentwelchen gründen jetzt immer diese meldung egal welche datei ich encoden will


    ------------- ffmpeg: Re-mux TS to MKV using ffmpeg 3.3.3 -------------


    C:\Downloads\StaxRip-x64-1.7.0.0-stable\Apps\ffmpeg\ffmpeg.exe -i "C:\Downloads\Neuer Ordner (2)\Geschnitten\Shameless - Nicht ganz nüchtern-S08E12.Traumlos glücklich.ts" -c:a copy -c:v copy -sn -y -hide_banner "C:\Downloads\Neuer Ordner (2)\Geschnitten\Shameless - Nic..._temp\Shameless - Nicht ganz nüchtern-S08E12.Traumlos glücklich.mkv"


    [h264 @ 000001895745b380] mmco: unref short failure
    [h264 @ 000001895745b380] number of reference frames (0+5) exceeds max (4; probably corrupt input), discarding one
    [h264 @ 000001895745b380] Increasing reorder buffer to 2
    [h264 @ 000001895745b380] Increasing reorder buffer to 3
    Input #0, mpegts, from 'C:\Downloads\Neuer Ordner (2)\Geschnitten\Shameless - Nicht ganz nüchtern-S08E12.Traumlos glücklich.ts':
    Duration: 00:54:25.10, start: 67757.311367, bitrate: 8009 kb/s
    Program 124
    Stream #0:0[0x1ff]: Video: h264 (High) ([27][0][0][0] / 0x001B), yuv420p(tv, bt709, top first), 1920x1080 [SAR 1:1 DAR 16:9], 25 fps, 25 tbr, 90k tbn, 50 tbc
    Stream #0:1[0x203](deu): Audio: ac3 ([6][0][0][0] / 0x0006), 48000 Hz, 5.1(side), fltp, 384 kb/s (clean effects)
    Stream #0:2[0x204](eng): Audio: ac3 ([6][0][0][0] / 0x0006), 48000 Hz, 5.1(side), fltp, 384 kb/s (clean effects)
    Output #0, matroska, to 'C:\Downloads\Neuer Ordner (2)\Geschnitten\Shameless - Nic..._temp\Shameless - Nicht ganz nüchtern-S08E12.Traumlos glücklich.mkv':
    Metadata:
    encoder : Lavf58.3.100
    Stream #0:0: Video: h264 (High) (H264 / 0x34363248), yuv420p(tv, bt709, top first), 1920x1080 [SAR 1:1 DAR 16:9], q=2-31, 25 fps, 25 tbr, 1k tbn, 90k tbc
    Stream #0:1(deu): Audio: ac3 ([0] [0][0] / 0x2000), 48000 Hz, 5.1(side), fltp, 384 kb/s (clean effects)
    Stream mapping:
    Stream #0:0 -> #0:0 (copy)
    Stream #0:1 -> #0:1 (copy)
    Press [q] to stop, [?] for help
    [matroska @ 00000189592d0500] Timestamps are unset in a packet for stream 0. This is deprecated and will stop working in the future. Fix your code to set the timestamps properly
    [matroska @ 00000189592d0500] Can't write packet with unknown timestamp
    av_interleaved_write_frame(): Invalid argument
    [matroska @ 00000189592d0500] Can't write packet with unknown timestamp
    Error writing trailer of C:\Downloads\Neuer Ordner (2)\Geschnitten\Shameless - Nic..._temp\Shameless - Nicht ganz nüchtern-S08E12.Traumlos glücklich.mkv: Invalid argument
    video:2789882kB audio:152720kB subtitle:0kB other streams:0kB global headers:0kB muxing overhead: 0.037878%
    Conversion failed!




    bei StaxRip.Proc.Start() in D:\Projekte\VS\VB\StaxRip\General\Proc.vb:Zeile 338.
    bei StaxRip.CommandLineDemuxer.Run(Project proj) in D:\Projekte\VS\VB\StaxRip\General\Demux.vb:Zeile 207.
    bei StaxRip.MainForm.Demux() in D:\Projekte\VS\VB\StaxRip\Forms\MainForm.vb:Zeile 3119.
    bei StaxRip.MainForm.OpenVideoSourceFiles(IEnumerable`1 files, Boolean isEncoding) in D:\Projekte\VS\VB\StaxRip\Forms\MainForm.vb:Zeile 1962.


    ich hoffe ihr könnt mir helfen

Seite 190 von 190 ErsteErste ... 90140180188189190

Aktive Benutzer

Aktive Benutzer

Aktive Benutzer in diesem Thema: 1 (Registrierte Benutzer: 0, Gäste: 1)

Ähnliche Themen

  1. SMPlayer - Neues Frontend für mplayer (Diskussion)
    Von Schotenhüter im Forum Abspielprobleme
    Antworten: 9
    Letzter Beitrag: 5. October 2007, 20:54
  2. DVD2SVCD hält sich nicht an vorgegebene Größe
    Von Kennii im Forum DVD2SVCD und allgemeine (S)VCD
    Antworten: 23
    Letzter Beitrag: 18. August 2004, 17:03
  3. Unable to read from File... error von bbMPEG
    Von Commander@LAN im Forum MPEG-2 Encoding
    Antworten: 7
    Letzter Beitrag: 6. March 2004, 15:43
  4. avi2vcd auflösung / kein bild
    Von monkman im Forum DVD2SVCD und allgemeine (S)VCD
    Antworten: 5
    Letzter Beitrag: 5. July 2003, 15:19
  5. Problem beim Muxen
    Von Khanh im Forum DVD2SVCD und allgemeine (S)VCD
    Antworten: 0
    Letzter Beitrag: 15. May 2003, 14:33

Berechtigungen

  • Neue Themen erstellen: Nein
  • Themen beantworten: Nein
  • Anhänge hochladen: Nein
  • Beiträge bearbeiten: Nein
  •