Seite 2 von 2 ErsteErste 12
Ergebnis 11 bis 20 von 20

Thema: e-ac3 richtig convertieren

  1. #11
    Kaiser
    Registriert seit
    5. December 2007
    Beiträge
    1.174

    Standard AW: e-ac3 richtig convertieren

    Hi, sorry das es so lange gedauert hat...

    mein ffmpeg:
    Code:
     ffmpeg version N-78305-gb3b0ece Copyright (c) 2000-2016 the FFmpeg developers
      built with gcc 5.2.1 (Ubuntu 5.2.1-22ubuntu2) 20151010
      configuration: --enable-nonfree --enable-gpl --enable-version3 --enable-x11grab
      libavutil      55. 17.100 / 55. 17.100
      libavcodec     57. 24.101 / 57. 24.101
      libavformat    57. 24.100 / 57. 24.100
      libavdevice    57.  0.101 / 57.  0.101
      libavfilter     6. 28.100 /  6. 28.100
      libswscale      4.  0.100 /  4.  0.100
      libswresample   2.  0.101 /  2.  0.101
      libpostproc    54.  0.100 / 54.  0.100
    Hyper fast Audio and Video encoder
    Hier ist ein 10mb snip. Hoffe es passt -> Link

  2. #12
    Daydreamer Avatar von Endoro
    Registriert seit
    11. August 2012
    Ort
    Atlantis & Avalon
    Beiträge
    512

    Standard AW: e-ac3 richtig convertieren

    Also, dein Snip wird vom QuickTime-Player ohne Probleme und vom VLC (OS X) gar nicht abgespielt. Die Umwandlung mit meinem ffmpeg ergibt folgendes Sitzungsprotokoll:
    Code:
    $ ffmpeg -i snip2.ac3 -map 0:0 snip2.eac3 
    ffmpeg version 2.5.2 Copyright (c) 2000-2014 the FFmpeg developers
      built on Mar 23 2015 04:06:35 with Apple LLVM version 6.0 (clang-600.0.57) (based on LLVM 3.5svn)
      configuration: --prefix=/usr/local/Cellar/ffmpeg/2.5.2 --enable-shared --enable-pthreads --enable-gpl --enable-version3 --enable-hardcoded-tables --enable-avresample --cc=clang --host-cflags= --host-ldflags= --enable-libx264 --enable-libmp3lame --enable-libxvid --enable-libfontconfig --enable-libfreetype --enable-libtheora --enable-libvorbis --enable-libvpx --enable-librtmp --enable-libopencore-amrnb --enable-libopencore-amrwb --enable-libfaac --enable-libass --enable-ffplay --enable-libfdk-aac --enable-openssl --enable-libopus --enable-frei0r --enable-libcaca --enable-libsoxr --enable-libquvi --enable-libvidstab --enable-libx265 --enable-libopenjpeg --disable-decoder=jpeg2000 --extra-cflags='-I/usr/local/Cellar/openjpeg/1.5.1_1/include/openjpeg-1.5 ' --enable-nonfree --enable-vda
      libavutil      54. 15.100 / 54. 15.100
      libavcodec     56. 13.100 / 56. 13.100
      libavformat    56. 15.102 / 56. 15.102
      libavdevice    56.  3.100 / 56.  3.100
      libavfilter     5.  2.103 /  5.  2.103
      libavresample   2.  1.  0 /  2.  1.  0
      libswscale      3.  1.101 /  3.  1.101
      libswresample   1.  1.100 /  1.  1.100
      libpostproc    53.  3.100 / 53.  3.100
    [eac3 @ 0x7fd722801400] Estimating duration from bitrate, this may be inaccurate
    Input #0, eac3, from 'snip2.ac3':
      Duration: 00:02:08.00, start: 0.000000, bitrate: 640 kb/s
        Stream #0:0: Audio: eac3, 48000 Hz, 5.1(side), fltp, 640 kb/s
    Output #0, eac3, to 'snip2.eac3':
      Metadata:
        encoder         : Lavf56.15.102
        Stream #0:0: Audio: eac3, 48000 Hz, 5.1(side), fltp, 448 kb/s
        Metadata:
          encoder         : Lavc56.13.100 eac3
    Stream mapping:
      Stream #0:0 -> #0:0 (eac3 (native) -> eac3 (native))
    Press [q] to stop, [?] for help
    [eac3 @ 0x7fd722835400] Dependent substream decoding is not implemented. Update your FFmpeg version to the newest one from Git. If the problem still occurs, it means that your file has a feature which has not been implemented.
    [eac3 @ 0x7fd722835400] If you want to help, upload a sample of this file to ftp://upload.ffmpeg.org/incoming/ and contact the ffmpeg-devel mailing list. (ffmpeg-devel@ffmpeg.org)
    [eac3 @ 0x7fd722835400] unsupported frame type : skipping frame
    [eac3 @ 0x7fd722835400] Dependent substream decoding is not implemented. Update your FFmpeg version to the newest one from Git. If the problem still occurs, it means that your file has a feature which has not been implemented.
    [eac3 @ 0x7fd722835400] If you want to help, upload a sample of this file to ftp://upload.ffmpeg.org/incoming/ and contact the ffmpeg-devel mailing list. (ffmpeg-devel@ffmpeg.org)
    [eac3 @ 0x7fd722835400] unsupported frame type : skipping frame
    [eac3 @ 0x7fd722835400] Dependent substream decoding is not implemented. Update your FFmpeg version to the newest one from Git. If the problem still occurs, it means that your file has a feature which has not been implemented.
    [eac3 @ 0x7fd722835400] If you want to help, upload a sample of this file to ftp://upload.ffmpeg.org/incoming/ and contact the ffmpeg-devel mailing list. (ffmpeg-devel@ffmpeg.org)
    [eac3 @ 0x7fd722835400] unsupported frame type : skipping frame
    [eac3 @ 0x7fd722835400] Dependent substream decoding is not implemented. Update your FFmpeg version to the newest one from Git. If the problem still occurs, it means that your file has a feature which has not been implemented.
    [eac3 @ 0x7fd722835400] If you want to help, upload a sample of this file to ftp://upload.ffmpeg.org/incoming/ and contact the ffmpeg-devel mailing list. (ffmpeg-devel@ffmpeg.org)
    [eac3 @ 0x7fd722835400] unsupported frame type : skipping frame
    ...
    ...
    ...
    [eac3 @ 0x7fd722835400] Dependent substream decoding is not implemented. Update your FFmpeg version to the newest one from Git. If the problem still occurs, it means that your file has a feature which has not been implemented.
    [eac3 @ 0x7fd722835400] If you want to help, upload a sample of this file to ftp://upload.ffmpeg.org/incoming/ and contact the ffmpeg-devel mailing list. (ffmpeg-devel@ffmpeg.org)
    [eac3 @ 0x7fd722835400] unsupported frame type : skipping frame
    [eac3 @ 0x7fd722835400] Dependent substream decoding is not implemented. Update your FFmpeg version to the newest one from Git. If the problem still occurs, it means that your file has a feature which has not been implemented.
    [eac3 @ 0x7fd722835400] If you want to help, upload a sample of this file to ftp://upload.ffmpeg.org/incoming/ and contact the ffmpeg-devel mailing list. (ffmpeg-devel@ffmpeg.org)
    [eac3 @ 0x7fd722835400] unsupported frame type : skipping frame
    [eac3 @ 0x7fd722835400] Dependent substream decoding is not implemented. Update your FFmpeg version to the newest one from Git. If the problem still occurs, it means that your file has a feature which has not been implemented.
    [eac3 @ 0x7fd722835400] If you want to help, upload a sample of this file to ftp://upload.ffmpeg.org/incoming/ and contact the ffmpeg-devel mailing list. (ffmpeg-devel@ffmpeg.org)
    [eac3 @ 0x7fd722835400] unsupported frame type : skipping frame
    size=    3500kB time=00:02:07.96 bitrate= 224.1kbits/s    
    video:0kB audio:3500kB subtitle:0kB other streams:0kB global headers:0kB muxing overhead: 0.000000%
    
    $ ffmpeg -i snip2.eac3 -c:a aac -strict -2 -q:a 4 snip.mp4
    ffmpeg version 2.5.2 Copyright (c) 2000-2014 the FFmpeg developers
      built on Mar 23 2015 04:06:35 with Apple LLVM version 6.0 (clang-600.0.57) (based on LLVM 3.5svn)
      configuration: --prefix=/usr/local/Cellar/ffmpeg/2.5.2 --enable-shared --enable-pthreads --enable-gpl --enable-version3 --enable-hardcoded-tables --enable-avresample --cc=clang --host-cflags= --host-ldflags= --enable-libx264 --enable-libmp3lame --enable-libxvid --enable-libfontconfig --enable-libfreetype --enable-libtheora --enable-libvorbis --enable-libvpx --enable-librtmp --enable-libopencore-amrnb --enable-libopencore-amrwb --enable-libfaac --enable-libass --enable-ffplay --enable-libfdk-aac --enable-openssl --enable-libopus --enable-frei0r --enable-libcaca --enable-libsoxr --enable-libquvi --enable-libvidstab --enable-libx265 --enable-libopenjpeg --disable-decoder=jpeg2000 --extra-cflags='-I/usr/local/Cellar/openjpeg/1.5.1_1/include/openjpeg-1.5 ' --enable-nonfree --enable-vda
      libavutil      54. 15.100 / 54. 15.100
      libavcodec     56. 13.100 / 56. 13.100
      libavformat    56. 15.102 / 56. 15.102
      libavdevice    56.  3.100 / 56.  3.100
      libavfilter     5.  2.103 /  5.  2.103
      libavresample   2.  1.  0 /  2.  1.  0
      libswscale      3.  1.101 /  3.  1.101
      libswresample   1.  1.100 /  1.  1.100
      libpostproc    53.  3.100 / 53.  3.100
    [eac3 @ 0x7fd6f1812800] Estimating duration from bitrate, this may be inaccurate
    Input #0, eac3, from 'snip2.eac3':
      Duration: 00:01:04.00, start: 0.000000, bitrate: 448 kb/s
        Stream #0:0: Audio: eac3, 48000 Hz, 5.1(side), fltp, 448 kb/s
    Output #0, mp4, to 'snip.mp4':
      Metadata:
        encoder         : Lavf56.15.102
        Stream #0:0: Audio: aac ([64][0][0][0] / 0x0040), 48000 Hz, 5.1(side), fltp, 128 kb/s
        Metadata:
          encoder         : Lavc56.13.100 aac
    Stream mapping:
      Stream #0:0 -> #0:0 (eac3 (native) -> aac (native))
    Press [q] to stop, [?] for help
    size=    3050kB time=00:01:04.00 bitrate= 390.4kbits/s    
    video:0kB audio:3038kB subtitle:0kB other streams:0kB global headers:0kB muxing overhead: 0.410898%
    
    $ mediainfo snip.mp4
    General
    Complete name                            : snip.mp4
    Format                                   : MPEG-4
    Format profile                           : Base Media
    Codec ID                                 : isom
    File size                                : 2.98 MiB
    Duration                                 : 1mn 4s
    Overall bit rate mode                    : Constant
    Overall bit rate                         : 390 Kbps
    Encoded date                             : UTC 1904-01-01 00:00:00
    Tagged date                              : UTC 1904-01-01 00:00:00
    Writing application                      : Lavf56.15.102
    
    Audio
    ID                                       : 1
    Format                                   : AAC
    Format/Info                              : Advanced Audio Codec
    Format profile                           : LC
    Codec ID                                 : 40
    Duration                                 : 1mn 4s
    Bit rate mode                            : Constant
    Bit rate                                 : 384 Kbps
    Channel(s)                               : 2 channels
    Channel(s)_Original                      : 6 channels
    Channel positions                        : Front: L C R, Side: L R, LFE
    Sampling rate                            : 48.0 KHz
    Compression mode                         : Lossy
    Stream size                              : 2.97 MiB (100%)
    Encoded date                             : UTC 1904-01-01 00:00:00
    Tagged date                              : UTC 1904-01-01 00:00:00
    Das Zwischenergebnis "snip2.eac3" ist ein 5.1 eac3-Stream (448 Kbps) und mit deinem Code ist das Endergebnis eine MP4 mit einem 384 Kbps Stereoton. Ab dem Zwischenergebnis wird alles auch vom VLC abgespielt. Um eac3 7.1 direkt umzuwandeln musst du noch etwas warten, das ist aber in der Pipeline.
    Geändert von Endoro (22. September 2016 um 00:31 Uhr) Grund: 348 -> 384
    

  3. #13
    Erklär-Bär Avatar von LigH
    Registriert seit
    19. April 2003
    Ort
    OPAL-Invalidengebiet Altmark
    Alter
    41
    Beiträge
    42.167

    Standard AW: e-ac3 richtig convertieren

    @ Endoro:

    "built on Mar 23 2015 04:06:35" ... damit ist dein ffmpeg erheblich zu alt für "dependent E-AC-3" von Blu-ray, glaube ich.

    Auf gute Zusammenarbeit:

    REGELN befolgen | SUCHE benutzen | FAQ lesen | STICKIES beachten




  4. #14
    Kaiser
    Registriert seit
    5. December 2007
    Beiträge
    1.174

    Standard AW: e-ac3 richtig convertieren

    @LigH. Ooops sorry. Falsches ffmpeg. Das ist ja das vom Ubuntu System.
    Ich hab's hiermit auch versucht:

    Code:
    /opt/ffmpeg/bin/ffmpeg 
    ffmpeg version N-81411-g57503fa Copyright (c) 2000-2016 the FFmpeg developers
      built with gcc 5.4.0 (Ubuntu 5.4.0-6ubuntu1~16.04.2) 20160609
      configuration: --prefix=/opt/ffmpeg --enable-gpl --enable-version3 --enable-nonfree --enable-static --disable-shared --enable-gray
      libavutil      55. 29.100 / 55. 29.100
      libavcodec     57. 54.100 / 57. 54.100
      libavformat    57. 47.101 / 57. 47.101
      libavdevice    57.  0.102 / 57.  0.102
      libavfilter     6. 52.100 /  6. 52.100
      libswscale      4.  1.100 /  4.  1.100
      libswresample   2.  1.100 /  2.  1.100
      libpostproc    54.  0.100 / 54.  0.100
    Hyper fast Audio and Video encoder

  5. #15
    Erklär-Bär Avatar von LigH
    Registriert seit
    19. April 2003
    Ort
    OPAL-Invalidengebiet Altmark
    Alter
    41
    Beiträge
    42.167

    Standard AW: e-ac3 richtig convertieren

    Mit einem relativ aktuellen Zeranoe-Build klappt es jedenfalls:

    Code:
    ffmpeg version N-81696-gd38dff8e Copyright (c) 2000-2016 the FFmpeg developers
      built with gcc 5.4.0 (GCC)
      configuration: --enable-gpl --enable-version3 --disable-w32threads --enable-dxva2 --enable-libmfx --enable-nvenc --enable-avisynth --enable-bzlib --enable-libebur128 --enable-fontconfig --enable-frei0r --enable-gnutls --enable-iconv --enable-libass --enable-libbluray --enable-libbs2b --enable-libcaca --enable-libfreetype --enable-libgme --enable-libgsm --enable-libilbc --enable-libmodplug --enable-libmp3lame --enable-libopencore-amrnb --enable-libopencore-amrwb --enable-libopenh264 --enable-libopenjpeg --enable-libopus --enable-librtmp --enable-libschroedinger --enable-libsnappy --enable-libsoxr --enable-libspeex --enable-libtheora --enable-libtwolame --enable-libvidstab --enable-libvo-amrwbenc --enable-libvorbis --enable-libvpx --enable-libwavpack --enable-libwebp --enable-libx264 --enable-libx265 --enable-libxavs --enable-libxvid --enable-libzimg --enable-lzma --enable-decklink --enable-zlib
      libavutil      55. 29.100 / 55. 29.100
      libavcodec     57. 57.100 / 57. 57.100
      libavformat    57. 49.100 / 57. 49.100
      libavdevice    57.  0.102 / 57.  0.102
      libavfilter     6. 62.100 /  6. 62.100
      libswscale      4.  1.100 /  4.  1.100
      libswresample   2.  1.100 /  2.  1.100
      libpostproc    54.  0.100 / 54.  0.100
    [eac3 @ 000000000054a9e0] Estimating duration from bitrate, this may be inaccurate
    Input #0, eac3, from 'snip2.ac3':
      Duration: 00:02:08.00, start: 0.000000, bitrate: 640 kb/s
        Stream #0:0: Audio: eac3, 48000 Hz, 5.1(side), fltp, 640 kb/s
    [adts @ 00000000005527c0] Using AVStream.codec to pass codec parameters to muxers is deprecated, use AVStream.codecpar instead.
    Output #0, adts, to 'snip2.aac':
      Metadata:
        encoder         : Lavf57.49.100
        Stream #0:0: Audio: aac (LC), 48000 Hz, 5.1(side), fltp, 341 kb/s
        Metadata:
          encoder         : Lavc57.57.100 aac
    Stream mapping:
      Stream #0:0 -> #0:0 (eac3 (native) -> aac (native))
    Press [q] to stop, [?] for help
    [eac3 @ 0000000000308320] Dependent substream decoding is not implemented. Update your FFmpeg version to the newest one from Git. If the problem still occurs, it means that your file has a feature which has not been implemented.
    [eac3 @ 0000000000308320] If you want to help, upload a sample of this file to ftp://upload.ffmpeg.org/incoming/ and contact the ffmpeg-devel mailing list. (ffmpeg-devel@ffmpeg.org)
    size=    2693kB time=00:02:07.96 bitrate= 172.4kbits/s speed=11.7x    
    video:0kB audio:2672kB subtitle:0kB other streams:0kB global headers:0kB muxing overhead: 0.767665%
    [aac @ 0000000000579000] Qavg: 620.373
    Zumindest soweit, dass ffmpeg den AC-3-Kern verarbeitet, die abhängigen E-AC-3-Kanäle aber ignoriert.

    Auf gute Zusammenarbeit:

    REGELN befolgen | SUCHE benutzen | FAQ lesen | STICKIES beachten




  6. #16
    Daydreamer Avatar von Endoro
    Registriert seit
    11. August 2012
    Ort
    Atlantis & Avalon
    Beiträge
    512

    Standard AW: e-ac3 richtig convertieren

    Zitat Zitat von LigH Beitrag anzeigen
    "built on Mar 23 2015 04:06:35" ... damit ist dein ffmpeg erheblich zu alt für "dependent E-AC-3" von Blu-ray, glaube ich.
    Es ist auf jeden Fall zu alt für eac3 7.1, aber das kommt ja erst noch. Den eac3 5.1 Stream bekommt es aber schon raus:
    Code:
    $ mediainfo snip2.eac3 
    General
    Complete name                            : snip2.eac3
    Format                                   : E-AC-3
    Format/Info                              : Audio Coding 3
    File size                                : 3.42 MiB
    Duration                                 : 1mn 4s
    Overall bit rate mode                    : Constant
    Overall bit rate                         : 448 Kbps
    
    Audio
    Format                                   : E-AC-3
    Format/Info                              : Audio Coding 3
    Format settings, Endianness              : Big
    Duration                                 : 1mn 4s
    Bit rate mode                            : Constant
    Bit rate                                 : 448 Kbps
    Channel(s)                               : 6 channels
    Channel positions                        : Front: L C R, Side: L R, LFE
    Sampling rate                            : 48.0 KHz
    Compression mode                         : Lossy
    Stream size                              : 3.42 MiB (100%)
    Der wird auch ordentlich abgespielt. Aber du hast Recht, ich muss wieder mal ein Update machen. Beim Mac ist das aufwendig, weil Homebrew bei 2.5.2 stehen geblieben ist und die fertigen Binaries nicht mit --enable-nonfree kompiliert werden dürfen. Ich bin nicht so der Kompilierer....
    

  7. #17
    Erklär-Bär Avatar von LigH
    Registriert seit
    19. April 2003
    Ort
    OPAL-Invalidengebiet Altmark
    Alter
    41
    Beiträge
    42.167

    Standard AW: e-ac3 richtig convertieren

    Es muss ja nicht "nonfree" sein. Die Zeranoe-Builds haben GPL 3 und LGPL aktiviert, wenn ich mich recht erinnere... die media-autobuild_suite kann auf "simulierte Zeranoe-Optionen" eingestellt werden, aber die ist doch eher für Windows geeignet. Allerdings kannst du wahrscheinlich aus den Skripten die entsprechende Voreinstellung herauslesen und musst dann nur noch Windows-spezifische mit Mac-spezifischen Optionen ersetzen. Im IRC hilft dir wohl #ffmpeg auf Freenode weiter.
    Geändert von LigH (22. September 2016 um 21:54 Uhr)

    Auf gute Zusammenarbeit:

    REGELN befolgen | SUCHE benutzen | FAQ lesen | STICKIES beachten




  8. #18
    Daydreamer Avatar von Endoro
    Registriert seit
    11. August 2012
    Ort
    Atlantis & Avalon
    Beiträge
    512

    Standard AW: e-ac3 richtig convertieren

    Zeranoe ist Windows-only. Ich hab aber festgestellt, dass mein "Homebrew" kaputt war. die aktuell dort angebotene Version ist:
    Code:
    $ ffmpeg -version
    ffmpeg version 3.1.3 Copyright (c) 2000-2016 the FFmpeg developers
    built with Apple LLVM version 7.3.0 (clang-703.0.31)
    configuration: --prefix=/usr/local/Cellar/ffmpeg/3.1.3 --enable-shared --enable-pthreads --enable-gpl --enable-version3 --enable-hardcoded-tables --enable-avresample --cc=clang --host-cflags= --host-ldflags= --enable-opencl --enable-libx264 --enable-libmp3lame --enable-libxvid --enable-libfontconfig --enable-libfreetype --enable-libtheora --enable-libvorbis --enable-libvpx --enable-librtmp --enable-libopencore-amrnb --enable-libopencore-amrwb --enable-libass --enable-ffplay --enable-libfdk-aac --enable-openssl --enable-libopus --enable-frei0r --enable-libcaca --enable-libsoxr --enable-libvidstab --enable-libx265 --disable-lzma --enable-libopenjpeg --disable-decoder=jpeg2000 --extra-cflags=-I/usr/local/Cellar/openjpeg/2.1.1/include/openjpeg-2.1 --enable-nonfree --enable-vda
    libavutil      55. 28.100 / 55. 28.100
    libavcodec     57. 48.101 / 57. 48.101
    libavformat    57. 41.100 / 57. 41.100
    libavdevice    57.  0.101 / 57.  0.101
    libavfilter     6. 47.100 /  6. 47.100
    libavresample   3.  0.  0 /  3.  0.  0
    libswscale      4.  1.100 /  4.  1.100
    libswresample   2.  1.100 /  2.  1.100
    libpostproc    54.  0.100 / 54.  0.100
    

  9. #19
    Erklär-Bär Avatar von LigH
    Registriert seit
    19. April 2003
    Ort
    OPAL-Invalidengebiet Altmark
    Alter
    41
    Beiträge
    42.167

    Standard AW: e-ac3 richtig convertieren

    Zitat Zitat von Endoro Beitrag anzeigen
    Zeranoe ist Windows-only.
    Ja, aber ... die media-autobuild_suite von jb-alvarado versucht, einen zu den Zeranoe-Builds ziemlich äquivalenten Optionensatz zur Verfügung zu stellen:

    Code:
    set ffmpeg_options_zeranoe=--disable-w32threads --enable-decklink --enable-fontconfig ^
    --enable-frei0r --enable-gnutls --enable-libass --enable-libbluray --enable-libbs2b ^
    --enable-libcaca --enable-libfreetype --enable-libfribidi ^
    --enable-libgme --enable-libgsm --enable-libilbc --enable-libmfx --enable-libmodplug ^
    --enable-libopencore-amrnb --enable-libopencore-amrwb --enable-libopenjpeg ^
    --enable-librtmp --enable-libschroedinger --enable-libsoxr --enable-libspeex ^
    --enable-libtheora --enable-libtwolame --enable-libvidstab --enable-libvo-amrwbenc ^
    --enable-libwavpack --enable-libwebp --enable-libxavs --enable-libxvid --enable-libzimg ^
    --enable-openssl --enable-libsnappy --enable-gpl
    Zuzüglich der Pakete, die von der Suite je nach Wunsch noch mit hinein compiliert werden.

    Wenn man darin nun Windows-spezifische durch Mac-spezifische Optionen ersetzt und das ganze nicht in MSYS/MinGW, sondern nativ unter OS X compiliert, sollte man hoffentlich auch was ziemlich gleichwertiges hinbekommen.

    Aber ich sehe schon, deine aktuelle Homebrew-Variante enthält auch so ziemlich alles mögliche. Sogar nonfree-Pakete (also theoretisch frisch aus Quellen compiliert und nur auf deinem Rechner zu belassen). Damit sollte sie also die gestellten Anforderungen erfüllen.

    Auf gute Zusammenarbeit:

    REGELN befolgen | SUCHE benutzen | FAQ lesen | STICKIES beachten




  10. #20
    Daydreamer Avatar von Endoro
    Registriert seit
    11. August 2012
    Ort
    Atlantis & Avalon
    Beiträge
    512

    Standard AW: e-ac3 richtig convertieren

    Homebrew compiliert nur dynamisch, was für mich kein Problem ist. Für Windows nutze ich die media-autobuild_suite mit allen Tools in "\msys64\usr\bin", die sich allerdings bezüglich Quotierung anders (besser, Unix-like) verhalten als GnuWin32.
    

Seite 2 von 2 ErsteErste 12

Aktive Benutzer

Aktive Benutzer

Aktive Benutzer in diesem Thema: 1 (Registrierte Benutzer: 0, Gäste: 1)

Ähnliche Themen

  1. H.264 convertieren
    Von hermes69 im Forum MPEG-4-Encoding
    Antworten: 14
    Letzter Beitrag: 26. August 2005, 20:25
  2. NTSC - PAL convertieren
    Von berti44 im Forum MPEG-2 Encoding
    Antworten: 6
    Letzter Beitrag: 24. October 2004, 10:51
  3. ATI .vcr convertieren
    Von darkpepe im Forum MPEG-4-Encoding
    Antworten: 8
    Letzter Beitrag: 9. September 2004, 18:12
  4. das Problem: ein avi von der VHS zu mpg convertieren
    Von 102030 im Forum Analoges Video-Capturing
    Antworten: 3
    Letzter Beitrag: 4. June 2004, 22:11
  5. convertieren ohne *.IFO
    Von ``Painkiller´´ im Forum DVD2SVCD und allgemeine (S)VCD
    Antworten: 5
    Letzter Beitrag: 7. December 2002, 13:52

Berechtigungen

  • Neue Themen erstellen: Nein
  • Themen beantworten: Nein
  • Anhänge hochladen: Nein
  • Beiträge bearbeiten: Nein
  •